• Игры для PS4
  • Игры для PS3
  • Игры для XBOX360
  • Игры для PC
  • Игры для PS2
  • Игры для PSP
  • Для телефонов
  • Музыка
  • Книги / Журналы
  • Обои
  • Опрос
    Откуда Вы о нас узнали?
      0
    • От знакомых2,1,false,300,full
    • Из социальных сетей2,2,false,300,full
    • Из поисковых систем2,3,false,300,full
    • Другое2,4,false,300,full
    Статистика
    Всего онлайн -
    Гостей -
    Пользователей -
    Короли трекера
    
    Благодарности () Закрыть
    Оригинальное название: Kalbimin Sultanı
    Год выпуска: 2018
    Жанр:  Историческая мелодрама
    Выпущено: Россия, Турция, Киностудия КИТ, Maya Productions, Global Connection International Media Group.
    Режиссер: Керем Чакироглу
    В ролях: Александра Никифорова, Али Эрсан Дуру, Эмель Чольгечен, Тансель Онгель, Дмитрий Щербина, Андрей Руденский, Александр Соколовский, Олеся Фаттахова, Илья Шакунов, Бесте Кёкдемир, Тунджер Салман, Танер Румели, Бюлент Сейран

    О фильме: Стамбул, начало XIX века. Анна — дочь одного из чиновников, работающих в посольстве Российской империи. Она случайно знакомится с османским султаном Махмудом II. Впечатленный интеллектом и знаниями девушки, правитель приглашает ее работать учительницей его детей, но она поначалу отказывается и уступает только после того, как на нее начинает давить русский посол Дмитрий. Во время работы во дворце Анна понимает, что начинает влюбляться в Махмуда. Но она сталкивается с массой проблем, ведь дети султана не слушаются чужестранку, а обитательницы гарема воспринимают ее как соперницу. Этому есть причина: сам Махмуд тоже влюбляется в новую учительницу.

    [img]http://i2.imageban.ru/out/2017/09/18/145e9a8b2b671c7a607905a46d5fede5.png[/img]

    Качество: HDTVRip
    Видео: XviD, ~ 1800 Кбит/с, 720x400
    Аудио: Русский (AC3, 2 ch, 192 Кбит/с)
    Продолжительность: 2 х ~ 00:50:00
    Перевод: Профессиональный многоголосый / Первый  канал
    Субтитры: нет



    MediaInfo

    Общее
    Полное имя                               : D:Sultan moego serdca.HDTVRip.GeneralFilm1.Sultan moego serdca.HDTVRip.GeneralFilm.avi
    Формат                                   : AVI
    Формат/Информация                        : Audio Video Interleave
    Размер файла                             : 685 Мбайт
    Продолжительность                        : 48 м. 35 с.
    Общий поток                              : 1969 Кбит/сек

    Видео
    Идентификатор                            : 0
    Формат                                   : MPEG-4 Visual
    Профиль формата                          : Advanced Simple@L5
    Параметр BVOP формата                    : 1
    Параметр QPel формата                    : Нет
    Параметр GMC формата                     : Без точки перехода
    Параметр матрицы формата                 : Выборочная
    Идентификатор кодека                     : XVID
    Идентификатор кодека/Подсказка           : XviD
    Продолжительность                        : 48 м. 35 с.
    Битрейт                                  : 1766 Кбит/сек
    Ширина                                   : 720 пикселей
    Высота                                   : 400 пикселей
    Соотношение сторон                       : 16:9
    Частота кадров                           : 25,000 кадров/сек
    Цветовое пространство                    : YUV
    Субдискретизация насыщенности            : 4:2:0
    Битовая глубина                          : 8 бит
    Тип развёртки                            : Прогрессивная
    Метод сжатия                             : С потерями
    Бит/(Пиксели*Кадры)                      : 0.245
    Размер потока                            : 614 Мбайт (90%)
    Библиотека кодирования                   : XviD 1.2.1 (UTC 2008-12-04)

    Аудио
    Идентификатор                            : 1
    Формат                                   : AC-3
    Формат/Информация                        : Audio Coding 3
    Расширение режима                        : CM (complete main)
    Параметр Endianness формата              : Big
    Идентификатор кодека                     : 2000
    Продолжительность                        : 48 м. 35 с.
    Вид битрейта                             : Постоянный
    Битрейт                                  : 192 Кбит/сек
    Каналы                                   : 2 канала
    Расположение каналов                     : Front: L R
    Частота                                  : 48,0 КГц
    Частота кадров                           : 31,250 кадров/сек (1536 spf)
    Битовая глубина                          : 16 бит
    Метод сжатия                             : С потерями
    Размер потока                            : 66,7 Мбайт (10%)
    Выравнивание                             : Соединение по промежуткам
    Продолжительность промежутка             : 32  мс. (0,80 видеокадр)

    Общее
    Полное имя                               : D:Sultan moego serdca.HDTVRip.GeneralFilm2.Sultan moego serdca.HDTVRip.GeneralFilm.avi
    Формат                                   : AVI
    Формат/Информация                        : Audio Video Interleave
    Размер файла                             : 687 Мбайт
    Продолжительность                        : 48 м. 12 с.
    Общий поток                              : 1992 Кбит/сек
    Программа кодирования                    : VirtualDubMod 1.5.10.3 | www.virtualdub-fr.org || (build 2550/release)
    Библиотека кодирования                   : VirtualDubMod build 2550/release

    Видео
    Идентификатор                            : 0
    Формат                                   : MPEG-4 Visual
    Профиль формата                          : Advanced Simple@L5
    Параметр BVOP формата                    : 1
    Параметр QPel формата                    : Нет
    Параметр GMC формата                     : Без точки перехода
    Параметр матрицы формата                 : Выборочная
    Идентификатор кодека                     : XVID
    Идентификатор кодека/Подсказка           : XviD
    Продолжительность                        : 48 м. 12 с.
    Битрейт                                  : 1790 Кбит/сек
    Ширина                                   : 720 пикселей
    Высота                                   : 400 пикселей
    Соотношение сторон                       : 16:9
    Частота кадров                           : 25,000 кадров/сек
    Цветовое пространство                    : YUV
    Субдискретизация насыщенности            : 4:2:0
    Битовая глубина                          : 8 бит
    Тип развёртки                            : Прогрессивная
    Метод сжатия                             : С потерями
    Бит/(Пиксели*Кадры)                      : 0.249
    Размер потока                            : 617 Мбайт (90%)
    Библиотека кодирования                   : XviD 1.2.1 (UTC 2008-12-04)

    Аудио
    Идентификатор                            : 1
    Формат                                   : AC-3
    Формат/Информация                        : Audio Coding 3
    Расширение режима                        : CM (complete main)
    Параметр Endianness формата              : Big
    Идентификатор кодека                     : 2000
    Продолжительность                        : 48 м. 12 с.
    Вид битрейта                             : Постоянный
    Битрейт                                  : 192 Кбит/сек
    Каналы                                   : 2 канала
    Расположение каналов                     : Front: L R
    Частота                                  : 48,0 КГц
    Частота кадров                           : 31,250 кадров/сек (1536 spf)
    Битовая глубина                          : 16 бит
    Метод сжатия                             : С потерями
    Размер потока                            : 66,2 Мбайт (10%)
    Выравнивание                             : Разделение по промежуткам
    Продолжительность промежутка             : 40  мс. (1,00 видеокадр)
    Время предзагрузки промежутка            : 500  мс.

    Общее
    Полное имя                               : D:Sultan moego serdca.HDTVRip.GeneralFilmSultan moego serdca.HDTVRip.GeneralFilm.torrent
    Размер файла                             : 16,3 Кбайт

    Свернуть
    Похожие раздачи Искать похожие
    Инструкция по скачиванию
     1  Качаем uTorrent версии 2.0 и выше
     2  После установки, жмем выше под постером на ссылку Скачать [MediaGet] или Скачать .torrent
     3  Открываем скачанный файл через соответствующий клиент: MediaGet или uTorrent
     4  Ждем пока подключатся участники
     5  Качаем
    Комментарии о  Султан моего сердца / Kalbimin Sultanı [Серии 01-02 из 24] | HDTVRip 
    Ближайшее в кино
    Вверх