• Игры для PS4
  • Игры для PS3
  • Игры для XBOX360
  • Игры для PC
  • Игры для PS2
  • Игры для PSP
  • Для телефонов
  • Музыка
  • Книги / Журналы
  • Обои
  • Опрос
    Откуда Вы о нас узнали?
      0
    • От знакомых2,1,false,300,full
    • Из социальных сетей2,2,false,300,full
    • Из поисковых систем2,3,false,300,full
    • Другое2,4,false,300,full
    Статистика
    Всего онлайн -
    Гостей -
    Пользователей -
    Короли трекера
    
    Благодарности () Закрыть
    Информация о фильме
    Название: Русское Рождество. Большой Рождественский концерт
    Год выпуска: 2019
    Жанр:  Концерт
    Ведущий: Андрей Малахов

    О фильме: Первые дни января, пожалуй, лучшее время года. Праздники, подарки, приятные встречи с друзьями и ожидание новогодних и рождественских чудес. Любимые артисты подарят зрителям праздничное настроение, исполнят свои главные хиты, рождественские песни и новые композиции. В праздничном музыкальном марафоне "Русское Рождество" приняли участие: Валерий Меладзе, Полина Гагарина, Дима Билан, Владимир Пресняков, София Ротару, Олег Газманов, Кристина Орбакайте, Ночные Снайперы, Денис Майданов, Сергей Трофимов, Вера Брежнева, "Руки Вверх!", ВИА Гра, Стас Пьеха, Александр Маршал, Елена Север, Стас Михайлов, Катя Лель, Анна Семенович, Николай Басков и многие другие.

    Выпущено: Россия
    Продолжительность: 01:25:59
    Перевод: Не требуется

    Файл
    Качество: HDTV 1080i
    Видео: MPEG-4 AVC, ~ 13.4 Мбит/с, 1920x1080
    Аудио: MP2, 2 ch, 192 Кбит/с



    MediaInfo
    General
    ID                               : 1 (0x1)
    Complete name                    : H:Русское Рождество. Большой рождественский концерт.(2019). HDTV 1080i от Files-x.ts
    Format                           : MPEG-TS
    File size                        : 8.71 GiB
    Duration                         : 1h 27mn
    Overall bit rate                 : 14.2 Mbps

    Video
    ID                               : 256 (0x100)
    Menu ID                          : 1 (0x1)
    Format                           : AVC
    Format/Info                      : Advanced Video Codec
    Format profile                   : High@L4.0
    Format settings, CABAC           : Yes
    Format settings, ReFrames        : 4 frames
    Codec ID                         : 27
    Duration                         : 1h 27mn
    Bit rate                         : 13.3 Mbps
    Width                            : 1 920 pixels
    Height                           : 1 080 pixels
    Display aspect ratio             : 16:9
    Frame rate                       : 25.000 fps
    Standard                         : Component
    Color space                      : YUV
    Chroma subsampling               : 4:2:0
    Bit depth                        : 8 bits
    Scan type                        : Interlaced
    Scan order                       : Top Field First
    Bits/(Pixel*Frame)               : 0.257
    Stream size                      : 8.16 GiB (94%)
    Color primaries                  : BT.709-5, BT.1361, IEC 61966-2-4, SMPTE RP177
    Transfer characteristics         : BT.709-5, BT.1361
    Matrix coefficients              : BT.709-5, BT.1361, IEC 61966-2-4 709, SMPTE RP177

    Audio
    ID                               : 257 (0x101)
    Menu ID                          : 1 (0x1)
    Format                           : MPEG Audio
    Format version                   : Version 1
    Format profile                   : Layer 2
    Codec ID                         : 3
    Duration                         : 1h 27mn
    Bit rate mode                    : Constant
    Bit rate                         : 192 Kbps
    Channel(s)                       : 2 channels
    Sampling rate                    : 48.0 KHz
    Compression mode                 : Lossy
    Delay relative to video          : -80ms
    Stream size                      : 120 MiB (1%)
    Language                         : Russian
    Свернуть


    [img]http://s003.radikal.ru/i204/1410/ed/4f31a7578dfb.gif[/img]
    Похожие раздачи Искать похожие
    Инструкция по скачиванию
     1  Качаем uTorrent версии 2.0 и выше
     2  После установки, жмем выше под постером на ссылку Скачать [MediaGet] или Скачать .torrent
     3  Открываем скачанный файл через соответствующий клиент: MediaGet или uTorrent
     4  Ждем пока подключатся участники
     5  Качаем
    Комментарии о  Русское Рождество. Большой Рождественский концерт | HDTV 1080i 
    Ближайшее в кино
    Вверх