• Игры для PS4
  • Игры для PS3
  • Игры для XBOX360
  • Игры для PC
  • Игры для PS2
  • Игры для PSP
  • Для телефонов
  • Музыка
  • Книги / Журналы
  • Обои
  • Опрос
    Удобен ли сайт в использовании?
      0
    • Очень удобен, все понятно1,1,false,300,full
    • Удобен1,2,false,300,full
    • Средне1,3,false,300,full
    • Неудобен, трудно ориентироваться1,4,false,300,full
    • Совсем неудобен1,5,false,300,full
    Статистика
    Всего онлайн -
    Гостей -
    Пользователей -
    Короли трекера
    
    Благодарности () Закрыть
    Информация о фильме
    Название: Скованные одной цепью
    Оригинальное название: The Defiant Ones
    Год выхода: 1958
    Жанр: Драма, Боевик, Приключения
    Режиссер: Стэнли Крамер
    В ролях: Тони Кертис, Сидни Пуатье, Теодор Бикел, Чарльз МакГроу, Лон Чейни, Кинг Донован, Клод Экинс, Лоуренс Добкин, Уит Бисселл

    О фильме:
    Тони Кертис и Сидни Пуатье "скованы одной цепью" - наручниками - и в таком виде бегут из тюрьмы. Действие происходит на Юге. Посему незавидное положение беглецов - недвусмысленная метафора расовых отношений в Америке. Хотя политический урок стоит на первом месте, смотреть фильм и следить за побегом "странной парочки" все равно очень интересно. И Пуатье, и Кертис сыграли великолепно. Для Кертиса роль необразованного расиста-южанина стала, возможно, лучшей за всю его карьеру. Тюремная драма, осуждающая расовую ненависть и систему наказания, построенную на подавлении личности, сделала Пуатье звездой.



    Страна: США
    Студия: United Artists
    Продолжительность: 01:36:09
    Перевод 1: Профессиональный (многоголосый закадровый) Культура
    Перевод 2: Профессиональный (многоголосый закадровый)
    Субтитры: нет
    Оригинальная аудиодорожка: английский

    Файл
    Качество видео: DVDRip
    Формат видео: AVI

    Видео: MPEG4, XviD, 688x416 (1.654), 25.000 fps, 1 643 Kbps (0.230 bit/pixel)
    Аудио 1: AC-3, 48.0 KHz, 2 ch, 192 Kbps, CBR - русский (ГТРК "Культура")
    Аудио 2: AC-3, 48.0 KHz, 2 ch, 192 Kbps, CBR - русский (DVD)
    Аудио 3: MP3, 48.0 KHz, 2 ch, 128 Kbps, CBR - английский
    MediaInfo

    Общее
    Полное имя                               : K:Скованные одной цепью.avi
    Формат                                   : AVI
    Формат/Информация                        : Audio Video Interleave
    Размер файла                             : 1,46 Гбайт
    Продолжительность                        : 1 ч. 36 м.
    Общий поток                              : 2174 Кбит/сек
    Название фильма                          : Скованные одной цепью / Не склонившие головы / The Defiant Ones (1958)
    Режиссёр                                 : miha2154
    Программа кодирования                    : VirtualDubMod 1.5.10.2 (build 2540/release)
    Библиотека кодирования                   : VirtualDubMod build 2540/release
    Правообладатель                          : специально для BitTorrent трекер RuTracker.org (ex torrents.ru)

    Видео
    Идентификатор                            : 0
    Формат                                   : MPEG-4 Visual
    Профиль формата                          : Advanced Simple@L5
    Параметр BVOP формата                    : 2
    Параметр QPel формата                    : Нет
    Параметр GMC формата                     : Без точки перехода
    Параметр матрицы формата                 : Default (MPEG)
    Идентификатор кодека                     : XVID
    Идентификатор кодека/Подсказка           : XviD
    Продолжительность                        : 1 ч. 36 м.
    Битрейт                                  : 1643 Кбит/сек
    Ширина                                   : 688 пикселей
    Высота                                   : 416 пикселей
    Соотношение сторон                       : 1,654
    Частота кадров                           : 25,000 кадров/сек
    Цветовое пространство                    : YUV
    Субдискретизация насыщенности            : 4:2:0
    Битовая глубина                          : 8 бит
    Тип развёртки                            : Прогрессивная
    Метод сжатия                             : С потерями
    Бит/(Пиксели*Кадры)                      : 0.230
    Размер потока                            : 1,10 Гбайт (76%)
    Библиотека кодирования                   : XviD 1.1.0 (UTC 2005-11-22)

    Аудио #1
    Идентификатор                            : 1
    Формат                                   : AC-3
    Формат/Информация                        : Audio Coding 3
    Расширение режима                        : CM (complete main)
    Параметр Endianness формата              : Big
    Идентификатор кодека                     : 2000
    Продолжительность                        : 1 ч. 36 м.
    Вид битрейта                             : Постоянный
    Битрейт                                  : 192 Кбит/сек
    Каналы                                   : 2 канала
    Расположение каналов                     : Front: L R
    Частота                                  : 48,0 КГц
    Битовая глубина                          : 16 бит
    Метод сжатия                             : С потерями
    Задержка видео                           : 3 с. 123 мс.
    Размер потока                            : 132 Мбайт (9%)
    Выравнивание                             : Разделение по промежуткам
    Продолжительность промежутка             : 40  мс. (1,00 видеокадр)
    Время предзагрузки промежутка            : 500  мс.
    Заголовок                                : Профессиональный (многоголосый закадровый) Культура

    Аудио #2
    Идентификатор                            : 2
    Формат                                   : AC-3
    Формат/Информация                        : Audio Coding 3
    Расширение режима                        : CM (complete main)
    Параметр Endianness формата              : Big
    Идентификатор кодека                     : 2000
    Продолжительность                        : 1 ч. 36 м.
    Вид битрейта                             : Постоянный
    Битрейт                                  : 192 Кбит/сек
    Каналы                                   : 2 канала
    Расположение каналов                     : Front: L R
    Частота                                  : 48,0 КГц
    Битовая глубина                          : 16 бит
    Метод сжатия                             : С потерями
    Задержка видео                           : 3 с. 123 мс.
    Размер потока                            : 132 Мбайт (9%)
    Выравнивание                             : Разделение по промежуткам
    Продолжительность промежутка             : 40  мс. (1,00 видеокадр)
    Время предзагрузки промежутка            : 500  мс.
    Заголовок                                : Профессиональный (многоголосый закадровый)

    Аудио #3
    Идентификатор                            : 3
    Формат                                   : MPEG Audio
    Версия формата                           : Version 1
    Профиль формата                          : Layer 3
    Режим                                    : Joint stereo
    Расширение режима                        : MS Stereo
    Идентификатор кодека                     : 55
    Идентификатор кодека/Подсказка           : MP3
    Продолжительность                        : 1 ч. 36 м.
    Вид битрейта                             : Постоянный
    Битрейт                                  : 128 Кбит/сек
    Каналы                                   : 2 канала
    Частота                                  : 48,0 КГц
    Метод сжатия                             : С потерями
    Задержка видео                           : 3 с. 96 мс.
    Размер потока                            : 88,0 Мбайт (6%)
    Выравнивание                             : Разделение по промежуткам
    Продолжительность промежутка             : 40  мс. (1,00 видеокадр)
    Время предзагрузки промежутка            : 504  мс.
    Заголовок                                : Английский

    Свернуть


    Скриншоты

    [screen]http://i58.fastpic.ru/big/2013/1023/4c/fc7931b8515c6e4ecf3c8b641ac50f4c.png[/screen][screen]http://i60.fastpic.ru/big/2013/1023/98/7eb4368653aadf3a631a9c2b6be44298.png[/screen][screen]http://i57.fastpic.ru/big/2013/1023/8a/4a8e0e7a714dcf0a5e40fc85c49e118a.png[/screen][screen]http://i59.fastpic.ru/big/2013/1023/07/fb6524940619a37ed79b89b4d663dc07.png[/screen]

    [screen]http://i57.fastpic.ru/big/2013/1023/63/d93e04ef0699d5a2de92437daef4c763.png[/screen][screen]http://i59.fastpic.ru/big/2013/1023/71/3018dfa4827d4b8b25eace1234951a71.png[/screen][screen]http://i60.fastpic.ru/big/2013/1023/7e/911b41b6600ce819c381dab9e2056e7e.png[/screen][screen]http://i59.fastpic.ru/big/2013/1023/53/77bc7cff362a10a8858f42b9e18a3a53.png[/screen]Свернуть
    Похожие раздачи Искать похожие
    Инструкция по скачиванию
     1  Качаем uTorrent версии 2.0 и выше
     2  После установки, жмем выше под постером на ссылку Скачать [MediaGet] или Скачать .torrent
     3  Открываем скачанный файл через соответствующий клиент: MediaGet или uTorrent
     4  Ждем пока подключатся участники
     5  Качаем
    Комментарии о  Не склонившие головы / Скованные одной цепью / The Defiant Ones | DVDRip 
    Ближайшее в кино
    Вверх