• Игры для PS4
  • Игры для PS3
  • Игры для XBOX360
  • Игры для PC
  • Игры для PS2
  • Игры для PSP
  • Для телефонов
  • Музыка
  • Книги / Журналы
  • Обои
  • Опрос
    Удобен ли сайт в использовании?
      0
    • Очень удобен, все понятно1,1,false,300,full
    • Удобен1,2,false,300,full
    • Средне1,3,false,300,full
    • Неудобен, трудно ориентироваться1,4,false,300,full
    • Совсем неудобен1,5,false,300,full
    Статистика
    Всего онлайн -
    Гостей -
    Пользователей -
    Короли трекера
    
    Благодарности () Закрыть
    Информация о фильме
    Название: Хэллоуин
    Оригинальное название: Halloween
    Год выхода: 2018
    Жанр: Ужасы, триллер
    Режиссер: Дэвид Гордон Грин
    В ролях: Джейми Ли Кёртис, Джуди Грир, Энди Мэтичак, Джеймс Джуд Кортни, Ник Касл, Халук Бильгинер, Уилл Пэттон, Риан Риис, Джефферсон Холл, Тоби Хасс



    О фильме: Зло неизменно возвращается, и им нельзя управлять. Его можно временно уничтожить, застрелить, сжечь, но вернется оно всё равно неизбежно. Майкл Майерс не закончил свое дело в Хэддонфилде, и скоро он вернётся домой, чтобы снова убивать.

    Страна: США
    Студия: Blumhouse Productions, Miramax, Rough House Pictures
    Продолжительность: 01:45:47
    Перевод: Дублированный | iTunes

    Качество: BDRemux 2160p
    Видео: 3840x2160 at 23.976 fps, MPEG-H HEVC HDR Video, 58300 kbps avg
    Звук:
    Аудио #01: 48 kHz, AC3, 5.1, 384 Kbps | iTunes | RUS |[img]http://img11.lostpic.net/2018/08/13/7c2ebc4025c59bfa2d99e99b51a513dc.png[/img]
    Аудио #02: 48 kHz, DTS-HD MA, 7.1, 5465 Kbps | Оригинал |  ENG |[img]http://img11.lostpic.net/2018/08/13/9611f09865bbb093dacbc8ec792c4ceb.png[/img]
    Субтитры: Английские

    [img]http://img15.lostpic.net/2019/01/09/0f1ddc638bb892bbe73c4086862050dc.png[/img][img]http://img15.lostpic.net/2019/01/09/987f19199bd44ae1bb4258840ca0e52d.png[/img][img]http://img15.lostpic.net/2019/01/09/6ee06676cdc7b72433ee0aae234ee85c.png[/img][img]http://img15.lostpic.net/2019/01/09/65d92badb627282298aa61f40f9cf332.png[/img][img]http://img15.lostpic.net/2019/01/09/345f071fb1f595d90a628d9f31adae25.png[/img]

    MI
    General
    Unique ID                   : 15216560090227578983000233102367601462 (0xB729A55DFC0672117411785190D3336)
    Complete name               : D:Video111Halloween.2018.UHD.BDREMUX.2160p.HDR.selezen.mkv
    Format                      : Matroska
    Format version              : Version 4
    File size                   : 47.4 GiB
    Duration                    : 1 h 45 min
    Overall bit rate mode       : Variable
    Overall bit rate            : 64.2 Mb/s
    Movie name                  : Halloween 4K from селезень
    Encoded date                : UTC 2019-01-09 05:18:07
    Writing application         : mkvmerge v29.0.0 ("Like It Or Not") 64-bit
    Writing library             : libebml v1.3.6 + libmatroska v1.4.9

    Video
    ID                          : 1
    Format                      : HEVC
    Format/Info                 : High Efficiency Video Coding
    Commercial name             : HDR10
    Format profile              : Main 10@L5.1@High
    Codec ID                    : V_MPEGH/ISO/HEVC
    Duration                    : 1 h 45 min
    Bit rate                    : 58.3 Mb/s
    Width                       : 3 840 pixels
    Height                      : 2 160 pixels
    Display aspect ratio        : 16:9
    Frame rate mode             : Constant
    Frame rate                  : 23.976 (24000/1001) FPS
    Color space                 : YUV
    Chroma subsampling          : 4:2:0 (Type 2)
    Bit depth                   : 10 bits
    Bits/(Pixel*Frame)          : 0.293
    Stream size                 : 43.1 GiB (91%)
    Language                    : English
    Default                     : Yes
    Forced                      : No
    Color range                 : Limited
    Color primaries             : BT.2020
    Transfer characteristics    : PQ
    Matrix coefficients         : BT.2020 non-constant
    Mastering display color pri : Display P3
    Mastering display luminance : min: 0.0050 cd/m2, max: 1000 cd/m2
    Maximum Content Light Level : 456 cd/m2
    Maximum Frame-Average Light : 85 cd/m2

    Audio #1
    ID                          : 2
    Format                      : AC-3
    Format/Info                 : Audio Coding 3
    Commercial name             : Dolby Digital
    Codec ID                    : A_AC3
    Duration                    : 1 h 45 min
    Bit rate mode               : Constant
    Bit rate                    : 384 kb/s
    Channel(s)                  : 6 channels
    Channel layout              : L R C LFE Ls Rs
    Sampling rate               : 48.0 kHz
    Frame rate                  : 31.250 FPS (1536 SPF)
    Bit depth                   : 16 bits
    Compression mode            : Lossy
    Stream size                 : 291 MiB (1%)
    Title                       : iTunes
    Language                    : Russian
    Service kind                : Complete Main
    Default                     : Yes
    Forced                      : Yes

    Audio #2
    ID                          : 3
    Format                      : DTS XLL X
    Format/Info                 : Digital Theater Systems
    Commercial name             : DTS-HD Master Audio
    Codec ID                    : A_DTS
    Duration                    : 1 h 45 min
    Bit rate mode               : Variable
    Bit rate                    : 5 465 kb/s
    Channel(s)                  : 8 channels
    Channel(s)_Original         : Object Based
    Channel layout              : Object Based
    Sampling rate               : 48.0 kHz
    Frame rate                  : 93.750 FPS (512 SPF)
    Bit depth                   : 24 bits
    Stream size                 : 4.04 GiB (9%)
    Title                       : Original
    Language                    : English
    Default                     : No
    Forced                      : No

    Text
    ID                          : 4
    Format                      : UTF-8
    Codec ID                    : S_TEXT/UTF8
    Codec ID/Info               : UTF-8 Plain Text
    Duration                    : 1 h 38 min
    Bit rate                    : 54 b/s
    Count of elements           : 1181
    Stream size                 : 39.4 KiB (0%)
    Title                       : Full
    Language                    : English
    Default                     : No
    Forced                      : No

    Menu
    00:00:00.000                : en:Chapter 01
    00:08:42.522                : en:Chapter 02
    00:14:26.949                : en:Chapter 03
    00:20:46.996                : en:Chapter 04
    00:23:17.855                : en:Chapter 05
    00:27:45.080                : en:Chapter 06
    00:32:55.724                : en:Chapter 07
    00:40:51.366                : en:Chapter 08
    00:44:41.053                : en:Chapter 09
    00:48:26.403                : en:Chapter 10
    00:53:26.453                : en:Chapter 11
    00:59:18.597                : en:Chapter 12
    01:03:22.340                : en:Chapter 13
    01:07:29.629                : en:Chapter 14
    01:14:46.524                : en:Chapter 15
    01:18:10.561                : en:Chapter 16
    01:22:04.837                : en:Chapter 17
    01:30:09.904                : en:Chapter 18
    01:35:33.394                : en:Chapter 19
    01:40:41.494                : en:Chapter 20Свернуть
    Похожие раздачи Искать похожие
    Инструкция по скачиванию
     1  Качаем uTorrent версии 2.0 и выше
     2  После установки, жмем выше под постером на ссылку Скачать [MediaGet] или Скачать .torrent
     3  Открываем скачанный файл через соответствующий клиент: MediaGet или uTorrent
     4  Ждем пока подключатся участники
     5  Качаем
    Комментарии о  Хэллоуин / Halloween | BDRemux 
    Ближайшее в кино
    Вверх