• Игры для PS4
  • Игры для PS3
  • Игры для XBOX360
  • Игры для PC
  • Игры для PS2
  • Игры для PSP
  • Для телефонов
  • Музыка
  • Книги / Журналы
  • Обои
  • Опрос
    Откуда Вы о нас узнали?
      0
    • От знакомых2,1,false,300,full
    • Из социальных сетей2,2,false,300,full
    • Из поисковых систем2,3,false,300,full
    • Другое2,4,false,300,full
    Статистика
    Всего онлайн -
    Гостей -
    Пользователей -
    Короли трекера
    
    Благодарности () Закрыть
    Информация о фильме
    Название: Микки и Мод
    Оригинальное название: Micki + Maude
    Год выпуска: 1984
    Выпущено: США, Blake Edwards, Columbia Pictures Corporation, Delphi III
    Жанр:  Комедия, мелодрама
    Режиссер: Блэйк Эдвардс
    В ролях: Дадли Мур, Эми Ирвинг, Энн Райнкинг, Ричард Маллиган, Джордж Гейнс, Уоллес Шон, Джон Плешетт, Х.Б. Хэггерти, Лу Леонард, Присцилла Пойнтер, Роберт Саймондс, Джордж Коу, Густав Винтас, Эмма Уолтон

    О фильме: Ведущий популярного телевизионного шоу Роб Сэленджер женат на Микки. Но из-за ее плотного рабочего графика супругам очень редко удается находиться вместе. Однажды Роб знакомится с молодой и симпатичной девушкой Мод, с которой у них завязываются романтические отношения. Узнав, что Мод беременна, он решает на ней жениться. По иронии судьбы в это же самое время законная супруга сообщает, что тоже ждет ребенка. Теперь, имея рядом двух беременных женщин, Робу приходится решать вдвое больше проблем…

    Продолжительность: 01:57:35
    Перевод: Профессиональный многоголосый, профессиональный одноголосый, авторский
    Субтитры: Английские
    Навигация по главам: Есть

    Файл
    Качество: WEB-DLRip 720p
    Видео: MPEG-4 AVC, 5602 Кбит/сек, 1278x530, 23,976 кадра/сек
    Аудио #1: AC3, 2 ch, 192 Кбит/сек | Русский, профессиональный (многоголосый закадровый) 1 канал
    Аудио #2: AC3, 2 ch, 192 Кбит/сек | Русский, профессиональный (одноголосый закадровый) Всеволод Абдулов, ВПТО "Видеофильм"
    Аудио #3: AC3, 2 ch, 192 Кбит/сек | Русский, авторский (одноголосый закадровый) Алексей Михалёв
    Аудио #4: AC3, 2 ch, 192 Кбит/сек | Английский, оригинал



    Скриншоты
    [screen]http://img15.lostpic.net/2019/01/08/ce5fced0af5af2c1dbdd11af74ac07a6.png[/screen][screen]http://img15.lostpic.net/2019/01/08/ce5fced0af5af2c1dbdd11af74ac07a6.png[/screen][screen]http://img15.lostpic.net/2019/01/08/20b6c2bc23413dd1e2d561539eb10652.png[/screen][screen]http://img15.lostpic.net/2019/01/08/dff6e363ba154619df720c9e9de8ff0f.png[/screen][screen]http://img15.lostpic.net/2019/01/08/2e2888b99d976a62b6108b4375573a88.png[/screen][screen]http://img15.lostpic.net/2019/01/08/88423bf76c7e8098d4044de88dba0829.png[/screen][screen]http://img15.lostpic.net/2019/01/08/9941e507c0f49b6237d1a6f31da0eb5f.png[/screen][screen]http://img15.lostpic.net/2019/01/08/22da42924df9e70fcc822e56f33766b7.png[/screen]Свернуть


    Инфо-файл
    x264 [info]: frame I:929   Avg QP:15.94  size:101638
    x264 [info]: frame P:34363 Avg QP:17.73  size: 52126
    x264 [info]: frame B:133849 Avg QP:19.62  size: 22811
    -----------------------------------------------------
    Общее
    Уникальный идентификатор                 : 241911317895655300289479708865404128913 (0xB5FE6CD37E765B6A9ACB24020868CE91)
    Полное имя                               : Микки.и.Мод.1984.WEB-DLRip.720p.KORSAR.mkv
    Формат                                   : Matroska
    Версия формата                           : Version 2
    Размер файла                             : 5,23 Гбайт
    Продолжительность                        : 1 ч. 57 м.
    Общий поток                              : 6371 Кбит/сек
    Дата кодирования                         : UTC 2019-01-07 20:19:31
    Программа кодирования                    : mkvmerge v5.8.0 ("No Sleep / Pillow") built on Sep  2 2012 15:37:04
    Библиотека кодирования                   : libebml v1.2.3 + libmatroska v1.3.0

    Видео
    Идентификатор                            : 1
    Формат                                   : AVC
    Формат/Информация                        : Advanced Video Codec
    Профиль формата                          : High@L4.1
    Настройки формата                        : CABAC / 12 Ref Frames
    Параметр CABAC формата                   : Да
    Параметр RefFrames формата               : 12 кадров
    Идентификатор кодека                     : V_MPEG4/ISO/AVC
    Продолжительность                        : 1 ч. 57 м.
    Битрейт                                  : 5602 Кбит/сек
    Ширина                                   : 1278 пикселей
    Высота                                   : 530 пикселей
    Соотношение сторон                       : 2,40:1
    Режим частоты кадров                     : Постоянный
    Частота кадров                           : 23,976 (24000/1001) кадра/сек
    Цветовое пространство                    : YUV
    Субдискретизация насыщенности            : 4:2:0
    Битовая глубина                          : 8 бит
    Тип развёртки                            : Прогрессивная
    Бит/(Пиксели*Кадры)                      : 0.345
    Размер потока                            : 4,50 Гбайт (86%)
    Заголовок                                : RIP | MZMA
    Библиотека кодирования                   : x264 core 152 r2851kMod ba24899
    Настройки программы                      : cabac=1 / ref=12 / deblock=1:-2:-2 / analyse=0x3:0x113 / me=umh / subme=11 / psy=1 / fade_compensate=0.00 / psy_rd=1.00:0.00 / mixed_ref=1 / me_range=48 / chroma_me=1 / trellis=2 / 8x8dct=1 / cqm=0 / deadzone=21,11 / fast_pskip=0 / chroma_qp_offset=-2 / threads=6 / lookahead_threads=1 / sliced_threads=0 / nr=0 / decimate=0 / interlaced=0 / bluray_compat=0 / constrained_intra=0 / bframes=16 / b_pyramid=2 / b_adapt=2 / b_bias=0 / direct=3 / weightb=1 / open_gop=0 / weightp=2 / keyint=240 / keyint_min=23 / scenecut=40 / intra_refresh=0 / rc_lookahead=40 / rc=2pass / mbtree=0 / bitrate=5602 / ratetol=1.0 / qcomp=0.60 / qpmin=0 / qpmax=69 / qpstep=4 / cplxblur=20.0 / qblur=0.5 / vbv_maxrate=50000 / vbv_bufsize=62500 / nal_hrd=none / filler=0 / ip_ratio=1.25 / pb_ratio=1.30 / aq=3:0.70
    Язык                                     : English
    По умолчанию                             : Да
    Принудительно                            : Нет
    Цветовой диапазон                        : Limited
    Основные цвета                           : BT.709
    Характеристики трансфера                 : BT.709
    Коэффициенты матрицы                     : BT.709

    Аудио #1
    Идентификатор                            : 2
    Формат                                   : AC-3
    Формат/Информация                        : Audio Coding 3
    Идентификатор кодека                     : A_AC3
    Продолжительность                        : 1 ч. 57 м.
    Вид битрейта                             : Постоянный
    Битрейт                                  : 192 Кбит/сек
    Каналы                                   : 2 канала
    Расположение каналов                     : Front: L R
    Частота                                  : 48,0 КГц
    Частота кадров                           : 31,250 кадров/сек (1536 SPF)
    Битовая глубина                          : 16 бит
    Метод сжатия                             : С потерями
    Размер потока                            : 161 Мбайт (3%)
    Заголовок                                : MVO | 1 канал
    Язык                                     : Russian
    По умолчанию                             : Да
    Принудительно                            : Нет

    Аудио #2
    Идентификатор                            : 3
    Формат                                   : AC-3
    Формат/Информация                        : Audio Coding 3
    Идентификатор кодека                     : A_AC3
    Продолжительность                        : 1 ч. 57 м.
    Вид битрейта                             : Постоянный
    Битрейт                                  : 192 Кбит/сек
    Каналы                                   : 2 канала
    Расположение каналов                     : Front: L R
    Частота                                  : 48,0 КГц
    Частота кадров                           : 31,250 кадров/сек (1536 SPF)
    Битовая глубина                          : 16 бит
    Метод сжатия                             : С потерями
    Размер потока                            : 161 Мбайт (3%)
    Заголовок                                : VO | В. Абдулов
    Язык                                     : Russian
    По умолчанию                             : Нет
    Принудительно                            : Нет

    Аудио #3
    Идентификатор                            : 4
    Формат                                   : AC-3
    Формат/Информация                        : Audio Coding 3
    Идентификатор кодека                     : A_AC3
    Продолжительность                        : 1 ч. 57 м.
    Вид битрейта                             : Постоянный
    Битрейт                                  : 192 Кбит/сек
    Каналы                                   : 2 канала
    Расположение каналов                     : Front: L R
    Частота                                  : 48,0 КГц
    Частота кадров                           : 31,250 кадров/сек (1536 SPF)
    Битовая глубина                          : 16 бит
    Метод сжатия                             : С потерями
    Размер потока                            : 161 Мбайт (3%)
    Заголовок                                : AVO | А. Михалев
    Язык                                     : Russian
    По умолчанию                             : Нет
    Принудительно                            : Нет

    Аудио #4
    Идентификатор                            : 5
    Формат                                   : AC-3
    Формат/Информация                        : Audio Coding 3
    Идентификатор кодека                     : A_AC3
    Продолжительность                        : 1 ч. 57 м.
    Вид битрейта                             : Постоянный
    Битрейт                                  : 192 Кбит/сек
    Каналы                                   : 2 канала
    Расположение каналов                     : Front: L R
    Частота                                  : 48,0 КГц
    Частота кадров                           : 31,250 кадров/сек (1536 SPF)
    Битовая глубина                          : 16 бит
    Метод сжатия                             : С потерями
    Размер потока                            : 161 Мбайт (3%)
    Заголовок                                : Original
    Язык                                     : English
    По умолчанию                             : Нет
    Принудительно                            : Нет

    Текст #1
    Идентификатор                            : 6
    Формат                                   : UTF-8
    Идентификатор кодека                     : S_TEXT/UTF8
    Идентификатор кодека/Информация          : UTF-8 Plain Text
    Язык                                     : English
    По умолчанию                             : Нет
    Принудительно                            : Нет

    Текст #2
    Идентификатор                            : 7
    Формат                                   : UTF-8
    Идентификатор кодека                     : S_TEXT/UTF8
    Идентификатор кодека/Информация          : UTF-8 Plain Text
    Заголовок                                : SDH
    Язык                                     : English
    По умолчанию                             : Нет
    Принудительно                            : Нет

    Меню
    00:00:00.000                             : en:01. Start
    00:02:32.754                             : en:02. Rob Salinger, TV Reporter
    00:06:32.093                             : en:03. Micki Salinger, Attorney
    00:09:52.493                             : en:04. Maude Guillory, Cellist
    00:17:54.107                             : en:05. After-Concert Party
    00:19:13.854                             : en:06. Maude"s Hollow Leg
    00:21:56.049                             : en:07. The Affair Begins
    00:24:30.337                             : en:08. The Men Who Hates Deception
    00:32:22.709                             : en:09. "I"m Pregnant."
    00:35:47.847                             : en:10. Barkhas Guillory, Father-Of-The-Bride
    00:38:35.381                             : en:11. It Punch & The Pillow
    00:40:58.490                             : en:12. "I"m Pregnant."
    00:48:24.002                             : en:13. Covering A Gangster"s Wedding
    00:52:19.838                             : en:14. The Green Sweater
    00:56:30.922                             : en:15. Truth Or Consequences
    01:00:55.853                             : en:16. "I"m Not Fit To Be A Mother."
    01:06:59.717                             : en:17. Rob"s Bad News
    01:11:59.850                             : en:18. Name Game
    01:14:39.243                             : en:19. "Mrs. Salinger?"
    01:22:42.525                             : en:20. An Abrupt Audition
    01:27:59.342                             : en:21. The Anesthetist
    01:30:25.688                             : en:22. I"d Like To Meet Mrs. Salinger."
    01:33:18.327                             : en:23. The Shocked Nurse Verbeck
    01:37:48.230                             : en:24. "I Have Two Wives!"
    01:39:00.135                             : en:25. It"s A Girl
    01:41:21.977                             : en:26. The Wives" Decision
    01:47:55.770                             : en:27. Visiting Day
    01:53:04.479                             : en:28. The Right MomentСвернуть




    Дополнительная информация
    • Исходник видео WEB-DL Amazon.Свернуть
    Инструкция по скачиванию
     1  Качаем uTorrent версии 2.0 и выше
     2  После установки, жмем выше под постером на ссылку Скачать [MediaGet] или Скачать .torrent
     3  Открываем скачанный файл через соответствующий клиент: MediaGet или uTorrent
     4  Ждем пока подключатся участники
     5  Качаем
    Комментарии о  Микки и Мод / Micki + Maude | WEB-DLRip 720p 
    Ближайшее в кино
    Вверх