• Игры для PS4
  • Игры для PS3
  • Игры для XBOX360
  • Игры для PC
  • Игры для PS2
  • Игры для PSP
  • Для телефонов
  • Музыка
  • Книги / Журналы
  • Обои
  • Опрос
    Удобен ли сайт в использовании?
      0
    • Очень удобен, все понятно1,1,false,300,full
    • Удобен1,2,false,300,full
    • Средне1,3,false,300,full
    • Неудобен, трудно ориентироваться1,4,false,300,full
    • Совсем неудобен1,5,false,300,full
    Статистика
    Всего онлайн -
    Гостей -
    Пользователей -
    Короли трекера
    
    Благодарности () Закрыть
    Информация о фильме
    Название: Скорость убивает
    Оригинальное название: Speed Kills
    Год выпуска: 2018
    Жанр:  Триллер, драма, криминал
    Режиссер: Джоди Скурфилд
    В ролях: Джон Траволта, Кэтрин Уинник, Дженнифер Эспозито, Майкл Уэстон, Джеймс Римар, Келлан Латс, Мэттью Модайн, Том Сайзмор, Моран Атиас, Чарльз Гиллеспи

    О фильме:
    Сюжет фильма закручивается вокруг Бена Ароноффа, известного гонщика на скоростных катерах. Он не единожды выигрывал различные заезды, став легендой в своём виде спорта. Однажды Бен прекратил выступления и начал работать на наркокартели. Используя свои уникальные навыки, он провозил огромные партии наркотиков на территорию США. Федералы старались поймать Ароноффа, однако ему удавалось выходить сухим из воды. Бен долгое время вёл двойную жизнь, и на протяжении нескольких лет всё у него было хорошо. Всё изменилось после того, как отношения между ним и картелями безнадёжно испортились. Плюс ко всему прочему, у DEA появились серьёзные улики, с помощью которых его можно отправить за решётку на несколько десятков лет…



    Страна: США
    Студия: Blue Rider Pictures, Hannibal Pictures, JTP Films
    Продолжительность: 01:42:23
    Перевод: Профессиональный многоголосый [HDrezka Studio]

    Файл
    Кодек: MPEG-4 AVC
    Качество: BDRip AVC
    Видео: 2133 Кбит/с, 1024x432
    Звук: Русский (AC3, 2 ch, 192 Кбит/с)

    Без Рекламы
    MI

    General
    Unique ID                   : 196407701988616054447241923548061514914 (0x93C2BF595473F090B90E2E0FAE5E3CA2)
    Complete name               : D:Скорость убивает.2018.BDRip (AVC).Kinozal-Reliz.mkv
    Format                      : Matroska
    Format version              : Version 2
    File size                   : 1.66 GiB
    Duration                    : 1 h 42 min
    Overall bit rate            : 2 326 kb/s
    Encoded date                : UTC 2019-01-09 00:03:39
    Writing application         : mkvmerge v7.8.0 ("River Man") 32bit built on Apr  3 2015 12:11:22
    Writing library             : libebml v1.3.1 + libmatroska v1.4.2

    Video
    ID                          : 1
    Format                      : AVC
    Format/Info                 : Advanced Video Codec
    Format profile              : High@L4.1
    Format settings             : CABAC / 10 Ref Frames
    Format settings, CABAC      : Yes
    Format settings, ReFrames   : 10 frames
    Codec ID                    : V_MPEG4/ISO/AVC
    Duration                    : 1 h 42 min
    Bit rate                    : 2 133 kb/s
    Width                       : 1 024 pixels
    Height                      : 432 pixels
    Display aspect ratio        : 2.40:1
    Frame rate mode             : Constant
    Frame rate                  : 23.976 FPS
    Color space                 : YUV
    Chroma subsampling          : 4:2:0
    Bit depth                   : 8 bits
    Scan type                   : Progressive
    Bits/(Pixel*Frame)          : 0.201
    Stream size                 : 1.49 GiB (90%)
    Writing library             : x264 core 146 r2538 121396c
    Encoding settings           : cabac=1 / ref=10 / deblock=1:0:0 / analyse=0x3:0x111 / me=umh / subme=9 / psy=1 / psy_rd=1.00:0.10 / mixed_ref=1 / me_range=16 / chroma_me=1 / trellis=2 / 8x8dct=1 / cqm=0 / deadzone=21,11 / fast_pskip=0 / chroma_qp_offset=-3 / threads=6 / lookahead_threads=1 / sliced_threads=0 / nr=0 / decimate=1 / interlaced=0 / bluray_compat=0 / constrained_intra=0 / bframes=3 / b_pyramid=2 / b_adapt=2 / b_bias=0 / direct=3 / weightb=1 / open_gop=0 / weightp=2 / keyint=250 / keyint_min=23 / scenecut=40 / intra_refresh=0 / rc_lookahead=50 / rc=2pass / mbtree=1 / bitrate=2133 / ratetol=1.0 / qcomp=0.60 / qpmin=0 / qpmax=69 / qpstep=4 / cplxblur=20.0 / qblur=0.5 / ip_ratio=1.40 / aq=1:1.00
    Default                     : Yes
    Forced                      : No

    Audio
    ID                          : 2
    Format                      : AC-3
    Format/Info                 : Audio Coding 3
    Commercial name             : Dolby Digital
    Codec ID                    : A_AC3
    Duration                    : 1 h 42 min
    Bit rate mode               : Constant
    Bit rate                    : 192 kb/s
    Channel(s)                  : 2 channels
    Channel layout              : L R
    Sampling rate               : 48.0 kHz
    Frame rate                  : 31.250 FPS (1536 SPF)
    Bit depth                   : 16 bits
    Compression mode            : Lossy
    Stream size                 : 141 MiB (8%)
    Service kind                : Complete Main
    Default                     : Yes
    Forced                      : No

    Свернуть


    Похожие раздачи Искать похожие
    Инструкция по скачиванию
     1  Качаем uTorrent версии 2.0 и выше
     2  После установки, жмем выше под постером на ссылку Скачать [MediaGet] или Скачать .torrent
     3  Открываем скачанный файл через соответствующий клиент: MediaGet или uTorrent
     4  Ждем пока подключатся участники
     5  Качаем
    Комментарии о  Скорость убивает / Speed Kills | BDRip-AVC 
    Ближайшее в кино
    Вверх