• Игры для PS4
  • Игры для PS3
  • Игры для XBOX360
  • Игры для PC
  • Игры для PS2
  • Игры для PSP
  • Для телефонов
  • Музыка
  • Книги / Журналы
  • Обои
  • Опрос
    Откуда Вы о нас узнали?
      0
    • От знакомых2,1,false,300,full
    • Из социальных сетей2,2,false,300,full
    • Из поисковых систем2,3,false,300,full
    • Другое2,4,false,300,full
    Статистика
    Всего онлайн -
    Гостей -
    Пользователей -
    Короли трекера
    
    Благодарности () Закрыть
    Название: Медаль Почёта (Медаль за отвагу)
    Оригинальное название: Medal of Honor
    Год выпуска: 2018
    Жанр:  Документальный, военный
    Выпущено: США, Allentown Productions,Compari Entertainment
    Режиссер: Джеймс Молл, Джеймс Мэдиган, Роберт Легато
    В ролях: Джо Марторано, Тайлер Уильямс, Оливер Хадсон, Дерек Мио, Стивен Грэйм, Вэл Лорен, Джонатан Стэнли, Джейк Эйбел, Мэйн Эндрю, Омар Ангуло

    О фильме: Сериал, основанный на реальных событиях, с документальными кадрами. Это история отважных людей, которые были готовы пожертвовать собой, и заслужили "Медаль За Отвагу".

    [img]https://u.myshows.me/r/58921.png[/img]

    Техданные
    Качество: WEBRip (720p)
    Видео: MPEG-4 AVC, ~ 2500 Kbps, 1280x674, 23.976 FPS
    Аудио: AC3, 2 ch, 256 Кбит/с
    Продолжительность: 8 x ~ 00:56:00
    Перевод: Любительский двухголосый закадровый (LakeFilms)
    Присутствует реклама!



    MI
    General
    Unique ID                                : 244969082428821415476428767024959655470 (0xB84B5441DAF9A080ADEEB8313E6F0E2E)
    Complete name                            : E:Medal.of.Honor.S01.720p.WEBRip.LakeFilmsMedal.of.Honor.S01E01.720p.WEBRip.LakeFilms.mkv
    Format                                   : Matroska
    Format version                           : Version 4 / Version 2
    File size                                : 1.07 GiB
    Duration                                 : 56mn 11s
    Overall bit rate                         : 2 728 Kbps
    Writing application                      : XviD4PSP 7.0.461 DAILY
    Writing library                          : Lavf57.71.100
    ENCODING_INFO                            : MATROSKA,WEBM > MKV / H264 > X264 ABR 2500kbps Very Fast / AAC-LC > AC3 CBR 256kbps

    Video
    ID                                       : 1
    Format                                   : AVC
    Format/Info                              : Advanced Video Codec
    Format profile                           : High@L3.1
    Format settings, CABAC                   : Yes
    Format settings, ReFrames                : 4 frames
    Codec ID                                 : V_MPEG4/ISO/AVC
    Duration                                 : 56mn 11s
    Bit rate                                 : 2 500 Kbps
    Width                                    : 1 280 pixels
    Height                                   : 674 pixels
    Display aspect ratio                     : 1.899
    Frame rate mode                          : Constant
    Frame rate                               : 23.976 fps
    Color space                              : YUV
    Chroma subsampling                       : 4:2:0
    Bit depth                                : 8 bits
    Scan type                                : Progressive
    Bits/(Pixel*Frame)                       : 0.121
    Stream size                              : 972 MiB (89%)
    Writing library                          : x264 core 157 r2935M 545de2f
    Encoding settings                        : cabac=1 / ref=1 / deblock=1:-1:-1 / analyse=0x3:0x113 / me=hex / subme=2 / psy=1 / psy_rd=1.00:0.00 / mixed_ref=0 / me_range=16 / chroma_me=1 / trellis=0 / 8x8dct=1 / cqm=0 / deadzone=21,11 / fast_pskip=1 / chroma_qp_offset=0 / threads=5 / lookahead_threads=1 / sliced_threads=0 / nr=0 / decimate=1 / interlaced=0 / bluray_compat=0 / constrained_intra=0 / bframes=3 / b_pyramid=2 / b_adapt=1 / b_bias=0 / direct=1 / weightb=1 / open_gop=0 / weightp=1 / keyint=240 / keyint_min=24 / scenecut=40 / intra_refresh=0 / rc_lookahead=10 / rc=abr / mbtree=1 / bitrate=2500 / ratetol=1.0 / qcomp=0.60 / qpmin=0 / qpmax=69 / qpstep=4 / ip_ratio=1.40 / aq=1:1.00
    Default                                  : Yes
    Forced                                   : No

    Audio
    ID                                       : 2
    Format                                   : AC-3
    Format/Info                              : Audio Coding 3
    Mode extension                           : CM (complete main)
    Format settings, Endianness              : Big
    Codec ID                                 : A_AC3
    Duration                                 : 56mn 11s
    Bit rate mode                            : Constant
    Bit rate                                 : 256 Kbps
    Channel(s)                               : 2 channels
    Channel positions                        : Front: L R
    Sampling rate                            : 48.0 KHz
    Bit depth                                : 16 bits
    Compression mode                         : Lossy
    Stream size                              : 103 MiB (9%)
    Default                                  : Yes
    Forced                                   : No
    Свернуть
    Инструкция по скачиванию
     1  Качаем uTorrent версии 2.0 и выше
     2  После установки, жмем выше под постером на ссылку Скачать [MediaGet] или Скачать .torrent
     3  Открываем скачанный файл через соответствующий клиент: MediaGet или uTorrent
     4  Ждем пока подключатся участники
     5  Качаем
    Комментарии о  Медаль Почёта / Медаль за отвагу / Medal of Honor [Сезон 01] | WEBRip 720p 
    Ближайшее в кино
    Вверх