• Игры для PS4
  • Игры для PS3
  • Игры для XBOX360
  • Игры для PC
  • Игры для PS2
  • Игры для PSP
  • Для телефонов
  • Музыка
  • Книги / Журналы
  • Обои
  • Опрос
    Откуда Вы о нас узнали?
      0
    • От знакомых2,1,false,300,full
    • Из социальных сетей2,2,false,300,full
    • Из поисковых систем2,3,false,300,full
    • Другое2,4,false,300,full
    Статистика
    Всего онлайн -
    Гостей -
    Пользователей -
    Короли трекера
    
    Благодарности () Закрыть
    Информация о фильме
    Название: День Святого Валентина
    Оригинальное название: Valentine
    Год выпуска: 2001
    Выпущено: США, Warner Bros. Pictures, Village Roadshow Productions, NPV Entertainment
    Жанр:  Триллер, ужасы
    Режиссер: Джеми Блэнкс
    В ролях: Дэнис Ричардс, Марли Шелтон, Кэтрин Хейгл, Джессика Кэпшоу, Дэвид Бореаназ, Дэниэл Косгров, Джессика Коффил

    О фильме: Месть сладка, словно конфетка ко дню Св. Валентина. По крайней мере, так думает мстительный убийца в маске Купидона. «Поздравляю… скоро встретимся». Разбитые сердца, любовь до смерти и другие серьезные травмы в исполнении современных молодых звезд в наполненном черным юмором неожиданном триллере.

    Продолжительность: 01:36:03
    Перевод: Дублированный
    Субтитры: Русские, английские
    Навигация по главам: Есть

    Файл
    Качество: WEB-DL 1080p
    Видео: MPEG-4 AVC, 4182 Кбит/сек, 1916x790, 23,976 кадра/сек
    Аудио #1: AC3, 6 ch, 384 Кбит/сек | Русский, профессиональный (полное дублирование) Мост-Видео
    Аудио #2: AC3, 6 ch, 384 Кбит/сек | Английский, оригинал



    Скриншоты
    [screen]http://img15.lostpic.net/2019/01/09/b9580fde0e176ca314d74b35e257b5c0.png[/screen][screen]http://img15.lostpic.net/2019/01/09/c52466276a8d2403029ede3f957dfd65.png[/screen][screen]http://img15.lostpic.net/2019/01/09/ba60a500ccf2e2cc093415d7b2d5c1ee.png[/screen][screen]http://img15.lostpic.net/2019/01/09/d08bd1eba0bbcf2b5eb219694fd29af4.png[/screen][screen]http://img15.lostpic.net/2019/01/09/2ef26fa915c51a3698983ae32ffcbe3a.png[/screen][screen]http://img15.lostpic.net/2019/01/09/a99ddc55d6938954b47da50040930ad5.png[/screen][screen]http://img15.lostpic.net/2019/01/09/d54b031e0e2a3bb4771247085e9449f3.png[/screen][screen]http://img15.lostpic.net/2019/01/09/84633c46afbfcc980f97e09351faefd8.png[/screen]Свернуть


    Инфо-файл
    Общее
    Уникальный идентификатор                 : 243123738241950668002208204153050656508 (0xB6E7EDC3AF26B69AB06058BF8DA06EFC)
    Полное имя                               : День.Святого.Валентина.2001.WEB-DL.1080p.mkv
    Формат                                   : Matroska
    Версия формата                           : Version 2
    Размер файла                             : 3,39 Гбайт
    Продолжительность                        : 1 ч. 36 м.
    Общий поток                              : 5050 Кбит/сек
    Дата кодирования                         : UTC 2019-01-09 02:18:51
    Программа кодирования                    : mkvmerge v5.8.0 ("No Sleep / Pillow") built on Sep  2 2012 15:37:04
    Библиотека кодирования                   : libebml v1.2.3 + libmatroska v1.3.0

    Видео
    Идентификатор                            : 1
    Формат                                   : AVC
    Формат/Информация                        : Advanced Video Codec
    Профиль формата                          : High@L4
    Настройки формата                        : CABAC / 5 Ref Frames
    Параметр CABAC формата                   : Да
    Параметр RefFrames формата               : 5 кадров
    Идентификатор кодека                     : V_MPEG4/ISO/AVC
    Продолжительность                        : 1 ч. 36 м.
    Битрейт                                  : 4182 Кбит/сек
    Ширина                                   : 1916 пикселей
    Высота                                   : 790 пикселей
    Соотношение сторон                       : 2,40:1
    Режим частоты кадров                     : Постоянный
    Частота кадров                           : 23,976 кадра/сек
    Цветовое пространство                    : YUV
    Субдискретизация насыщенности            : 4:2:0
    Битовая глубина                          : 8 бит
    Тип развёртки                            : Прогрессивная
    Бит/(Пиксели*Кадры)                      : 0.115
    Размер потока                            : 2,81 Гбайт (83%)
    Язык                                     : English
    По умолчанию                             : Да
    Принудительно                            : Нет
    Цветовой диапазон                        : Limited
    Основные цвета                           : BT.709
    Характеристики трансфера                 : BT.709
    Коэффициенты матрицы                     : BT.709

    Аудио #1
    Идентификатор                            : 2
    Формат                                   : AC-3
    Формат/Информация                        : Audio Coding 3
    Идентификатор кодека                     : A_AC3
    Продолжительность                        : 1 ч. 36 м.
    Вид битрейта                             : Постоянный
    Битрейт                                  : 384 Кбит/сек
    Каналы                                   : 6 каналов
    Расположение каналов                     : Front: L C R, Side: L R, LFE
    Частота                                  : 48,0 КГц
    Частота кадров                           : 31,250 кадров/сек (1536 SPF)
    Битовая глубина                          : 16 бит
    Метод сжатия                             : С потерями
    Размер потока                            : 264 Мбайт (8%)
    Заголовок                                : DUB | Мост-Видео
    Язык                                     : Russian
    По умолчанию                             : Да
    Принудительно                            : Нет

    Аудио #2
    Идентификатор                            : 3
    Формат                                   : AC-3
    Формат/Информация                        : Audio Coding 3
    Идентификатор кодека                     : A_AC3
    Продолжительность                        : 1 ч. 36 м.
    Вид битрейта                             : Постоянный
    Битрейт                                  : 384 Кбит/сек
    Каналы                                   : 6 каналов
    Расположение каналов                     : Front: L C R, Side: L R, LFE
    Частота                                  : 48,0 КГц
    Частота кадров                           : 31,250 кадров/сек (1536 SPF)
    Битовая глубина                          : 16 бит
    Метод сжатия                             : С потерями
    Размер потока                            : 264 Мбайт (8%)
    Заголовок                                : Original
    Язык                                     : English
    По умолчанию                             : Нет
    Принудительно                            : Нет

    Текст #1
    Идентификатор                            : 4
    Формат                                   : UTF-8
    Идентификатор кодека                     : S_TEXT/UTF8
    Идентификатор кодека/Информация          : UTF-8 Plain Text
    Язык                                     : Russian
    По умолчанию                             : Нет
    Принудительно                            : Нет

    Текст #2
    Идентификатор                            : 5
    Формат                                   : UTF-8
    Идентификатор кодека                     : S_TEXT/UTF8
    Идентификатор кодека/Информация          : UTF-8 Plain Text
    Заголовок                                : SDH
    Язык                                     : English
    По умолчанию                             : Нет
    Принудительно                            : Нет

    Меню
    00:00:00.000                             : en:Jeremy Rejected
    00:03:12.317                             : en:Jason Rejected
    00:05:19.277                             : en:Shelly"s Valentine
    00:08:50.071                             : en:Newest Corpse
    00:13:10.289                             : en:Turbo Dating
    00:15:31.013                             : en:Funeral Foursome
    00:19:48.228                             : en:Dorth"s Delemmas
    00:22:50.410                             : en:Shower Interrupted
    00:26:16.575                             : en:You Are What You Eat
    00:29:23.011                             : en:Max"s Exhibit
    00:32:44.545                             : en:Not Her Valentine
    00:35:00.431                             : en:Cupid"s Arrow
    00:36:19.010                             : en:Uncomfortable Couples
    00:38:25.261                             : en:Dorthy Confesses
    00:41:21.020                             : en:Tracking Jeremy
    00:46:31.622                             : en:Sexual Tension
    00:48:11.722                             : en:Irons in The Fire
    00:52:55.380                             : en:Love in The Afternoon
    00:55:48.803                             : en:Death In The Cellar
    00:58:50.235                             : en:Party Partnering
    01:02:26.576                             : en:Waxing It
    01:05:35.806                             : en:Stolen Goods
    01:08:49.750                             : en:Through the Glass Darkly
    01:12:36.226                             : en:Bottom of the Bottle
    01:14:30.924                             : en:Depth Charge
    01:18:52.561                             : en:Fat Girl"s Turn
    01:21:20.625                             : en:Wrong Number
    01:23:18.743                             : en:Dance in The Dark
    01:26:46.743                             : en:Body Count
    01:28:38.104                             : en:Unmasked
    01:31:05.543                             : en:Love Bleeds
    01:33:01.784                             : en:End Credits (Breed)Свернуть


    Сборка:[img]http://i1.imageban.ru/out/2018/02/13/db08a675822da337df05f97bda2ce544.gif[/img] [img]http://i3.imageban.ru/out/2018/07/23/276881ff853d23c7f0c2335cfae4252f.png[/img]
    Похожие раздачи Искать похожие
    Инструкция по скачиванию
     1  Качаем uTorrent версии 2.0 и выше
     2  После установки, жмем выше под постером на ссылку Скачать [MediaGet] или Скачать .torrent
     3  Открываем скачанный файл через соответствующий клиент: MediaGet или uTorrent
     4  Ждем пока подключатся участники
     5  Качаем
    Комментарии о  День Святого Валентина / Valentine | WEB-DL 1080p 
    Ближайшее в кино
    Вверх