• Игры для PS4
  • Игры для PS3
  • Игры для XBOX360
  • Игры для PC
  • Игры для PS2
  • Игры для PSP
  • Для телефонов
  • Музыка
  • Книги / Журналы
  • Обои
  • Опрос
    Откуда Вы о нас узнали?
      0
    • От знакомых2,1,false,300,full
    • Из социальных сетей2,2,false,300,full
    • Из поисковых систем2,3,false,300,full
    • Другое2,4,false,300,full
    Статистика
    Всего онлайн -
    Гостей -
    Пользователей -
    Короли трекера
    
    Благодарности () Закрыть
    Информация о фильме
    Название: Цветы на чердаке
    Оригинальное название: Flowers in the Attic
    Год выпуска: 2014
    Выпущено: Канада, США, Cue the Dog Productions, Front Street Pictures
    Жанр:  Триллер, драма, детектив, экранизация
    Режиссер: Дебора Чоу
    В ролях: Хезер Грэм, Эллен Бёрстин, Кирнан Шипка, Мэйсон Дай, Дилан Брюс, Ава Телек, Бо Дэниелс, Б.Дж. Харрисон

    О фильме: Фильм, снятый по роману писательницы Вирджинии Эндрюс.
    Когда у Корин Доллагэнгер внезапно умер любимый муж, для неё и четырёх детей настали тяжелые времена. Она осталась без гроша, без работы и не знала, что делать. Жизнь вынудила её вернуться в дом своих родителей Фоксвортов, людей богатых, но жестоких и ханжей.

    Продолжительность: 01:29:59
    Перевод: Любительский
    Субтитры: Русские, английские
    Навигация по главам: Есть

    Файл
    Качество: WEB-DL 1080p
    Видео: MPEG-4 AVC, 8209 Кбит/сек, 1920x1080, 23,976 кадра/сек
    Аудио #1: AC3, 2 ch, 224 Кбит/сек | Русский, любительский (одноголосый закадровый) ViruseProject - Александр Харченко
    Аудио #2: AC3, 2 ch, 224 Кбит/сек | Английский, оригинал



    Скриншоты
    [screen]http://img15.lostpic.net/2019/01/08/2c6701da66995437de0e929ccc004f68.png[/screen][screen]http://img15.lostpic.net/2019/01/08/7a27ead08254715d5ce79562101a7e34.png[/screen][screen]http://img15.lostpic.net/2019/01/08/802f7b81d06bff37749b8d6ef88887e2.png[/screen][screen]http://img15.lostpic.net/2019/01/08/09926922a01c303fdb4eb136ca644c2a.png[/screen][screen]http://img15.lostpic.net/2019/01/08/a0b622a103ccf07cd542c7ef50cb6c7e.png[/screen][screen]http://img15.lostpic.net/2019/01/08/8153c70659c39bcaad4dcc4cd7fbe26b.png[/screen][screen]http://img15.lostpic.net/2019/01/08/8153c70659c39bcaad4dcc4cd7fbe26b.png[/screen][screen]http://img15.lostpic.net/2019/01/08/9992e66b5d2542ea7245f6259092ac47.png[/screen]Свернуть


    Инфо-файл
    Общее
    Уникальный идентификатор                 : 254247320783873861855021689340714378250 (0xBF4640B9FA32E7CA9DCDD0D298CD640A)
    Полное имя                               : Цветы.на.чердаке.2014.WEB-DL.1080p.mkv
    Формат                                   : Matroska
    Версия формата                           : Version 2
    Размер файла                             : 5,55 Гбайт
    Продолжительность                        : 1 ч. 29 м.
    Режим общего битрейта                    : Переменный
    Общий поток                              : 8833 Кбит/сек
    Дата кодирования                         : UTC 2019-01-08 10:27:57
    Программа кодирования                    : mkvmerge v5.8.0 ("No Sleep / Pillow") built on Sep  2 2012 15:37:04
    Библиотека кодирования                   : libebml v1.2.3 + libmatroska v1.3.0

    Видео
    Идентификатор                            : 1
    Формат                                   : AVC
    Формат/Информация                        : Advanced Video Codec
    Профиль формата                          : High@L4
    Настройки формата                        : CABAC / 4 Ref Frames
    Параметр CABAC формата                   : Да
    Параметр RefFrames формата               : 4 кадра
    Идентификатор кодека                     : V_MPEG4/ISO/AVC
    Продолжительность                        : 1 ч. 29 м.
    Вид битрейта                             : Переменный
    Битрейт                                  : 8209 Кбит/сек
    Максимальный битрейт                     : 15,0 Мбит/сек
    Ширина                                   : 1920 пикселей
    Высота                                   : 1080 пикселей
    Соотношение сторон                       : 16:9
    Режим частоты кадров                     : Постоянный
    Частота кадров                           : 23,976 (24000/1001) кадра/сек
    Цветовое пространство                    : YUV
    Субдискретизация насыщенности            : 4:2:0
    Битовая глубина                          : 8 бит
    Тип развёртки                            : Прогрессивная
    Бит/(Пиксели*Кадры)                      : 0.165
    Размер потока                            : 5,16 Гбайт (93%)
    Библиотека кодирования                   : x264 core 148 r2623 d5b2374
    Настройки программы                      : cabac=1 / ref=4 / deblock=1:-1:-1 / analyse=0x3:0x133 / me=umh / subme=9 / psy=1 / psy_rd=1.00:0.15 / mixed_ref=1 / me_range=24 / chroma_me=1 / trellis=2 / 8x8dct=1 / cqm=0 / deadzone=21,11 / fast_pskip=1 / chroma_qp_offset=-3 / threads=34 / lookahead_threads=5 / sliced_threads=0 / nr=150 / decimate=1 / interlaced=0 / bluray_compat=0 / constrained_intra=0 / bframes=8 / b_pyramid=2 / b_adapt=2 / b_bias=0 / direct=3 / weightb=1 / open_gop=0 / weightp=2 / keyint=120 / keyint_min=61 / scenecut=0 / intra_refresh=0 / rc_lookahead=120 / rc=crf / mbtree=1 / crf=18.0 / qcomp=0.60 / qpmin=0 / qpmax=69 / qpstep=4 / vbv_maxrate=15000 / vbv_bufsize=31250 / crf_max=0.0 / nal_hrd=vbr / filler=0 / ip_ratio=1.40 / aq=3:1.00
    Язык                                     : English
    По умолчанию                             : Да
    Принудительно                            : Нет
    Цветовой диапазон                        : Limited
    Основные цвета                           : BT.709
    Характеристики трансфера                 : BT.709
    Коэффициенты матрицы                     : BT.709

    Аудио #1
    Идентификатор                            : 2
    Формат                                   : AC-3
    Формат/Информация                        : Audio Coding 3
    Идентификатор кодека                     : A_AC3
    Продолжительность                        : 1 ч. 29 м.
    Вид битрейта                             : Постоянный
    Битрейт                                  : 224 Кбит/сек
    Каналы                                   : 2 канала
    Расположение каналов                     : Front: L R
    Частота                                  : 48,0 КГц
    Частота кадров                           : 31,250 кадров/сек (1536 SPF)
    Битовая глубина                          : 16 бит
    Метод сжатия                             : С потерями
    Размер потока                            : 144 Мбайт (3%)
    Заголовок                                : VO | ViruseProject
    Язык                                     : Russian
    По умолчанию                             : Да
    Принудительно                            : Нет

    Аудио #2
    Идентификатор                            : 3
    Формат                                   : AC-3
    Формат/Информация                        : Audio Coding 3
    Идентификатор кодека                     : A_AC3
    Продолжительность                        : 1 ч. 29 м.
    Вид битрейта                             : Постоянный
    Битрейт                                  : 224 Кбит/сек
    Каналы                                   : 2 канала
    Расположение каналов                     : Front: L R
    Частота                                  : 48,0 КГц
    Частота кадров                           : 31,250 кадров/сек (1536 SPF)
    Битовая глубина                          : 16 бит
    Метод сжатия                             : С потерями
    Размер потока                            : 144 Мбайт (3%)
    Заголовок                                : Original
    Язык                                     : English
    По умолчанию                             : Нет
    Принудительно                            : Нет

    Текст #1
    Идентификатор                            : 4
    Формат                                   : UTF-8
    Идентификатор кодека                     : S_TEXT/UTF8
    Идентификатор кодека/Информация          : UTF-8 Plain Text
    Язык                                     : Russian
    По умолчанию                             : Нет
    Принудительно                            : Нет

    Текст #2
    Идентификатор                            : 5
    Формат                                   : UTF-8
    Идентификатор кодека                     : S_TEXT/UTF8
    Идентификатор кодека/Информация          : UTF-8 Plain Text
    Язык                                     : English
    По умолчанию                             : Нет
    Принудительно                            : Нет

    Меню
    00:00:00.000                             : en:Viewer Discretion
    00:00:03.480                             : en:Cathy reflects about her time at Foxworth Hall, Opening Credits
    00:02:01.480                             : en:Title Sequence
    00:02:12.480                             : en:The children welcome their father home
    00:05:42.480                             : en:Corrine and the children get ready for the party
    00:07:36.480                             : en:Corrine struggles with finances
    00:09:43.480                             : en:Corrine tells Christopher and Cathy about her family
    00:12:04.480                             : en:Corrine travels back to her home with her children
    00:14:03.480                             : en:The children meet their grandmother
    00:19:21.480                             : en:The children wake up to recieve food and a list of rules from Grandmother
    00:21:47.480                             : en:The children explore and play in the attic
    00:24:34.480                             : en:Grandmother humiliates Corrine in front of her children
    00:28:11.480                             : en:Corrine tells her children about her past
    00:30:53.480                             : en:Grandmother accuses Cathy of wickedness
    00:33:49.480                             : en:Cathy confronts Corrine about when they are leaving
    00:36:06.480                             : en:Christopher finds Cory unconscious
    00:37:14.480                             : en:Cathy comforts Cory
    00:38:18.480                             : en:The children celebrate Christmas
    00:42:13.480                             : en:Corrine lets Christopher and Cathy watch the party
    00:47:01.480                             : en:Christopher explores the house
    00:47:58.480                             : en:Corrine slaps Christopher for not being back in the room
    00:48:49.480                             : en:Corrine gives her children the option to leave
    00:50:48.480                             : en:Cathy realizes they"ve been locked in the attic for a year
    00:52:01.480                             : en:Cathy and Christopher"s bodies begin to change
    00:56:32.480                             : en:Christopher cuts Cathy"s hair
    00:58:09.480                             : en:Cathy and Christopher start thinking of ways to leave the attic
    01:02:21.480                             : en:Corrine returns from her honeymoon with Bart
    01:04:28.480                             : en:Grandmother brings donuts for the children
    01:08:00.480                             : en:Christopher begs for forgiveness from Grandmother
    01:09:33.480                             : en:Christopher makes a copy of the master key
    01:12:10.480                             : en:Cathy kisses Bart while Christopher inspects the electric fence
    01:14:28.480                             : en:Cathy and Christopher try to take care of Cory
    01:17:49.480                             : en:Corrine explains Cory"s sickness
    01:19:38.480                             : en:Cathy and Christopher realize Corrine has left
    01:20:24.480                             : en:Cathy and Christopher prepare their escape
    01:26:06.480                             : en:Christopher and Cathy flee for their lives
    01:27:45.480                             : en:Christopher and Cathy begin their new lives together
    01:28:38.480                             : en:Grandmother watches from the attic
    01:28:58.480                             : en:End CreditsСвернуть


    Дополнительная информация
    • Исходник видео WEB-DL Amazon.Свернуть


    Сборка:[img]http://i1.imageban.ru/out/2018/02/13/db08a675822da337df05f97bda2ce544.gif[/img] [img]http://i3.imageban.ru/out/2018/07/23/276881ff853d23c7f0c2335cfae4252f.png[/img]
    Похожие раздачи Искать похожие
    Инструкция по скачиванию
     1  Качаем uTorrent версии 2.0 и выше
     2  После установки, жмем выше под постером на ссылку Скачать [MediaGet] или Скачать .torrent
     3  Открываем скачанный файл через соответствующий клиент: MediaGet или uTorrent
     4  Ждем пока подключатся участники
     5  Качаем
    Комментарии о  Цветы на чердаке / Flowers in the Attic | WEB-DL 1080p 
    Ближайшее в кино
    Вверх