• Игры для PS4
  • Игры для PS3
  • Игры для XBOX360
  • Игры для PC
  • Игры для PS2
  • Игры для PSP
  • Для телефонов
  • Музыка
  • Книги / Журналы
  • Обои
  • Опрос
    Удобен ли сайт в использовании?
      0
    • Очень удобен, все понятно1,1,false,300,full
    • Удобен1,2,false,300,full
    • Средне1,3,false,300,full
    • Неудобен, трудно ориентироваться1,4,false,300,full
    • Совсем неудобен1,5,false,300,full
    Статистика
    Всего онлайн -
    Гостей -
    Пользователей -
    Короли трекера
    
    Благодарности () Закрыть
    Информация о фильме
    Название: Лепестки на ветру
    Оригинальное название: Petals on the Wind
    Год выпуска: 2014
    Выпущено: США, A+E Studios, Cue the Dog Productions, Fries Film Company, Silver Screen Pictures
    Жанр:  Триллер, драма, детектив, экранизация
    Режиссер: Карен Монкрифф
    В ролях: Хезер Грэм, Роуз МакИвер, Бейли Де Янг, Ник Сирси, Дилан Брюс, Уилл Кемп, Уитни Хой, Эллиа Инглиш, Эллен Бёрстин

    О фильме: Фильм, снятый по роману писательницы Вирджинии Эндрюс.Фильм является продолжение «Цветы на чердаке».
    Кэти, Кристофер и Кэрри пытаются забыть свое тяжелое прошлое, но вскоре выясняется, что не все секреты могут быть оставлены позади. Когда у Кэти начинаются оскорбительные для нее отношения с ее партнером по занятиям балетом Джулианом, Кристофер и Кэти сталкиваются с запретными чувствами друг к другу. Но после того как в семье Доллангенджеров вновь случается трагедия, Кэти возвращается в дом семьи Фоксфорт. Героиня картины «Лепестки на ветру» намеревается противостоять бабушке, а также отомстить матери Коррин, соблазнив ее мужа Барта.

    Продолжительность: 01:28:01
    Перевод: Любительский
    Субтитры: Русские, английские
    Навигация по главам: Есть

    Файл
    Качество: WEB-DL 1080p
    Видео: MPEG-4 AVC, 11,4 Мбит/сек, 1920x1080, 23,976 кадра/сек
    Аудио #1: AC3, 2 ch, 224 Кбит/сек | Русский, любительский (одноголосый закадровый) ViruseProject - Александр Харченко
    Аудио #2: EAC3, 2 ch, 224 Кбит/сек | Английский, оригинал



    Скриншоты
    [screen]http://img15.lostpic.net/2019/01/08/ca2348e5ead705ce5a6dd906233cadad.png[/screen][screen]http://img15.lostpic.net/2019/01/08/1864284e3db2d14afadf337cdddd243c.png[/screen][screen]http://img15.lostpic.net/2019/01/08/643f1809cf5c87a29397ad7f75c99e5c.png[/screen][screen]http://img15.lostpic.net/2019/01/08/309c7b3ab77f3ba7ff579d18b43a83f2.png[/screen][screen]http://img15.lostpic.net/2019/01/08/4025a93595f24da4813f203a0b89edcf.png[/screen][screen]http://img15.lostpic.net/2019/01/08/0fa0c4294f8820a16cda19a641f92d1d.png[/screen][screen]http://img15.lostpic.net/2019/01/08/acda2f7d423b1a080b7f000d2c73a17c.png[/screen][screen]http://img15.lostpic.net/2019/01/08/d426106dc375461fbcdb692cd9cae74f.png[/screen]Свернуть


    Инфо-файл
    Общее
    Уникальный идентификатор                 : 205301626842042478580105483820461133267 (0x9A73A7B31A75CE5CADAEC028B7730DD3)
    Полное имя                               : Лепестки.на.ветру.2014.WEB-DL.1080p.mkv
    Формат                                   : Matroska
    Версия формата                           : Version 2
    Размер файла                             : 7,42 Гбайт
    Продолжительность                        : 1 ч. 28 м.
    Режим общего битрейта                    : Переменный
    Общий поток                              : 12,1 Мбит/сек
    Дата кодирования                         : UTC 2019-01-08 13:59:17
    Программа кодирования                    : mkvmerge v5.8.0 ("No Sleep / Pillow") built on Sep  2 2012 15:37:04
    Библиотека кодирования                   : libebml v1.2.3 + libmatroska v1.3.0

    Видео
    Идентификатор                            : 1
    Формат                                   : AVC
    Формат/Информация                        : Advanced Video Codec
    Профиль формата                          : High@L4
    Настройки формата                        : CABAC / 4 Ref Frames
    Параметр CABAC формата                   : Да
    Параметр RefFrames формата               : 4 кадра
    Идентификатор кодека                     : V_MPEG4/ISO/AVC
    Продолжительность                        : 1 ч. 28 м.
    Вид битрейта                             : Переменный
    Битрейт                                  : 11,4 Мбит/сек
    Максимальный битрейт                     : 15,0 Мбит/сек
    Ширина                                   : 1920 пикселей
    Высота                                   : 1080 пикселей
    Соотношение сторон                       : 16:9
    Режим частоты кадров                     : Постоянный
    Частота кадров                           : 23,976 (24000/1001) кадра/сек
    Цветовое пространство                    : YUV
    Субдискретизация насыщенности            : 4:2:0
    Битовая глубина                          : 8 бит
    Тип развёртки                            : Прогрессивная
    Бит/(Пиксели*Кадры)                      : 0.229
    Размер потока                            : 7,00 Гбайт (94%)
    Библиотека кодирования                   : x264 core 148 r2623 d5b2374
    Настройки программы                      : cabac=1 / ref=4 / deblock=1:-1:-1 / analyse=0x3:0x133 / me=umh / subme=9 / psy=1 / psy_rd=1.00:0.15 / mixed_ref=1 / me_range=24 / chroma_me=1 / trellis=2 / 8x8dct=1 / cqm=0 / deadzone=21,11 / fast_pskip=1 / chroma_qp_offset=-3 / threads=34 / lookahead_threads=5 / sliced_threads=0 / nr=150 / decimate=1 / interlaced=0 / bluray_compat=0 / constrained_intra=0 / bframes=8 / b_pyramid=2 / b_adapt=2 / b_bias=0 / direct=3 / weightb=1 / open_gop=0 / weightp=2 / keyint=120 / keyint_min=61 / scenecut=0 / intra_refresh=0 / rc_lookahead=120 / rc=crf / mbtree=1 / crf=18.0 / qcomp=0.60 / qpmin=0 / qpmax=69 / qpstep=4 / vbv_maxrate=15000 / vbv_bufsize=31250 / crf_max=0.0 / nal_hrd=vbr / filler=0 / ip_ratio=1.40 / aq=3:1.00
    Язык                                     : English
    По умолчанию                             : Да
    Принудительно                            : Нет
    Цветовой диапазон                        : Limited
    Основные цвета                           : BT.709
    Характеристики трансфера                 : BT.709
    Коэффициенты матрицы                     : BT.709

    Аудио #1
    Идентификатор                            : 2
    Формат                                   : AC-3
    Формат/Информация                        : Audio Coding 3
    Идентификатор кодека                     : A_AC3
    Продолжительность                        : 1 ч. 28 м.
    Вид битрейта                             : Постоянный
    Битрейт                                  : 224 Кбит/сек
    Каналы                                   : 2 канала
    Расположение каналов                     : Front: L R
    Частота                                  : 48,0 КГц
    Частота кадров                           : 31,250 кадров/сек (1536 SPF)
    Битовая глубина                          : 16 бит
    Метод сжатия                             : С потерями
    Размер потока                            : 141 Мбайт (2%)
    Заголовок                                : VO | ViruseProject
    Язык                                     : Russian
    По умолчанию                             : Да
    Принудительно                            : Нет

    Аудио #2
    Идентификатор                            : 3
    Формат                                   : E-AC-3
    Формат/Информация                        : Enhanced Audio Coding 3
    Идентификатор кодека                     : A_EAC3
    Продолжительность                        : 1 ч. 28 м.
    Вид битрейта                             : Постоянный
    Битрейт                                  : 224 Кбит/сек
    Каналы                                   : 2 канала
    Расположение каналов                     : Front: L R
    Частота                                  : 48,0 КГц
    Частота кадров                           : 187,500 кадров/сек (256 SPF)
    Метод сжатия                             : С потерями
    Размер потока                            : 141 Мбайт (2%)
    Заголовок                                : Original
    Язык                                     : English
    По умолчанию                             : Нет
    Принудительно                            : Нет

    Текст #1
    Идентификатор                            : 4
    Формат                                   : UTF-8
    Идентификатор кодека                     : S_TEXT/UTF8
    Идентификатор кодека/Информация          : UTF-8 Plain Text
    Язык                                     : Russian
    По умолчанию                             : Нет
    Принудительно                            : Нет

    Текст #2
    Идентификатор                            : 5
    Формат                                   : UTF-8
    Идентификатор кодека                     : S_TEXT/UTF8
    Идентификатор кодека/Информация          : UTF-8 Plain Text
    Заголовок                                : SDH
    Язык                                     : English
    По умолчанию                             : Нет
    Принудительно                            : Нет

    Меню
    00:00:00.000                             : en:Chapter 1
    00:09:38.578                             : en:Chapter 2
    00:18:35.114                             : en:Chapter 3
    00:29:50.789                             : en:Chapter 4
    00:40:46.444                             : en:Chapter 5
    00:51:16.073                             : en:Chapter 6
    01:01:13.670                             : en:Chapter 7
    01:10:32.228                             : en:Chapter 8
    01:19:57.793                             : en:Chapter 9
    01:26:17.172                             : en:Chapter 10Свернуть


    Дополнительная информация
    • Исходник видео WEB-DL Amazon.Свернуть


    Сборка:[img]http://i1.imageban.ru/out/2018/02/13/db08a675822da337df05f97bda2ce544.gif[/img] [img]http://i3.imageban.ru/out/2018/07/23/276881ff853d23c7f0c2335cfae4252f.png[/img]
    Похожие раздачи Искать похожие
    Инструкция по скачиванию
     1  Качаем uTorrent версии 2.0 и выше
     2  После установки, жмем выше под постером на ссылку Скачать [MediaGet] или Скачать .torrent
     3  Открываем скачанный файл через соответствующий клиент: MediaGet или uTorrent
     4  Ждем пока подключатся участники
     5  Качаем
    Комментарии о  Лепестки на ветру / Petals on the Wind | WEB-DL 1080p 
    Ближайшее в кино
    Вверх