• Игры для PS4
  • Игры для PS3
  • Игры для XBOX360
  • Игры для PC
  • Игры для PS2
  • Игры для PSP
  • Для телефонов
  • Музыка
  • Книги / Журналы
  • Обои
  • Опрос
    Удобен ли сайт в использовании?
      0
    • Очень удобен, все понятно1,1,false,300,full
    • Удобен1,2,false,300,full
    • Средне1,3,false,300,full
    • Неудобен, трудно ориентироваться1,4,false,300,full
    • Совсем неудобен1,5,false,300,full
    Статистика
    Всего онлайн -
    Гостей -
    Пользователей -
    Короли трекера
    
    Благодарности () Закрыть
    Информация о фильме
    Название: Домик на счастье
    Оригинальное название: Будиночок на щастя
    Год выхода: 2018
    Жанр: комедия
    Режиссер: Сергея Атрощенко
    В ролях: Галина Безрук (Маша), Константин Войтенко (Макс), Назар Заднепровский (Василий), Виталина Библив (Люба) и др.

    О фильме:
    Что будет, если два городских жителя решат переехать в село? Конечно, комедия! Именно так и произошло с двумя нашими героями – молодоженами Максом и Машей. Из шумного и благоустроенного мегаполиса пара перебралась в небольшое село Сеньковка, в доставшийся им по наследству бабушкин дом. Для Макса тут все близкое, родное и наполнено воспоминаниями, так как он вырос в этом доме. Для городской стильной штучки Маши это просто горы хлама, а отсутствие привычных радостей цивилизации и вовсе приводят девушку в уныние. Поэтому Маша всеми силами стремится уехать обратно в Киев. Макс же, напротив, хочет остаться тут навсегда, и уговаривает супругу заняться бизнесом – открыть страусиную ферму. Добавят колорита и яркости в жизнь наших героев их соседи – хитрые, любопытные, но с багажом житейского опыта, Василий и Люба. Для них новоприбывшие киевляне – неопознанные объекты, однако вызывающие неподдельный интерес. Отчего эмоциональный диалог села и города породит массу забавных недоразумений и смешных событий.

    Страна: Украина
    Продолжительность: 16 x ~ 00:25:00
    Язык: Русский, Украинский

    Файл
    Формат: MPEG-4
    Качество: WEBRip 720p
    Видео: 1280x720 (16:9), 25.000 fps, AVC MPEG-4, Main@L3.1 ~982 kbps, 0.043 bit/pixel
    Аудио: 44.1 kHz, AAC LC, 2/0 (L,R) ch, ~128 kbps
    Субтитры: отсутствуют

    Реклама отсутствует.

    Интересные факты
    Снимали сериал в реальном селе Сеньковка Бориспольского района Киевской области. Для съемок арендовали у одних владельцев два соседних дома. В первый поселили персонажей Константина Войтенко и Галины Безрук – Макса и Машу. А во второй – героев Назара Заднепровского и Виталины Библив – Василия и Любу. Все время, пока снимали комедию, настоящие хозяева находились на площадке и наблюдали за процессом. Но определяющим фактором при выборе домиков стало совсем не то, что они принадлежали одним владельцам, и не то, что находились по соседству, что очень удобно. А то, что дом, в который по сюжету переезжает столичная пара, был очень похож на домик бабушки и дедушки режиссера-постановщика Сергея Атрощенко. Эх, ностальгия!

    Назар Заднепровский, исполнитель роли Василия, не умеет водить автомобиль. Но для ситкома актеру впервые в жизни пришлось сесть за руль внедорожника. Благо, по сюжету его герой тоже не водитель.

    В сериале была самая непослушная массовка – козы, коровы, куры, лошади, мыши, пчелы и пауки. Создатели комедии шутят, что животные ни разу не «играли» по сценарию. Если режиссер хотел, чтобы корова жевала морковь в кадре, она не делала этого принципиально. Кстати, все животные – местные, и часто на съемочную площадку приходили вместе с хозяевами.

    Власти Сеньковки и местные жители всячески помогали создателям ситкома. Разрешили снимать и в центре села, и в аптеке, и местном клубе. Более того, чтобы не мешать, на несколько месяцев отложили ремонт дорог. Поэтому зрители увидят еще грунтовки, по которым передвигается дорогой внедорожник Макса и Маши.

    По сюжету, Макс и Маша переезжают в село не сами, а с маленькой собачкой. Ее девушка (как это часто бывает в городе) носит в сумке, чем удивляет жителей Сеньковки. Порода собаки – бельгийский гриффон, и она на самом деле любимец актрисы Галины Безрук, которая сыграла Машу. Настоящая кличка собаки – Милли, но для комичности ее изменили на Муля.Свернуть


    MediaInfo
    General
    Complete name                    : E:Domik na schastye.2018_Klayd X1.Domik na schastye.2018_Klayd X.mp4
    Format                           : MPEG-4
    Format profile                   : Base Media / Version 2
    Codec ID                         : mp42
    File size                        : 219 MiB
    Duration                         : 27mn 30s
    Overall bit rate                 : 1 114 Kbps
    Encoded date                     : UTC 2018-10-17 06:25:40
    Tagged date                      : UTC 2018-10-17 06:25:40
    gsst                             : 0
    gstd                             : 1650358

    Video
    ID                               : 1
    Format                           : AVC
    Format/Info                      : Advanced Video Codec
    Format profile                   : Main@L3.1
    Format settings, CABAC           : Yes
    Format settings, ReFrames        : 3 frames
    Codec ID                         : avc1
    Codec ID/Info                    : Advanced Video Coding
    Duration                         : 27mn 30s
    Bit rate mode                    : Variable
    Bit rate                         : 982 Kbps
    Width                            : 1 280 pixels
    Height                           : 720 pixels
    Display aspect ratio             : 16:9
    Frame rate mode                  : Constant
    Frame rate                       : 25.000 fps
    Color space                      : YUV
    Chroma subsampling               : 4:2:0
    Bit depth                        : 8 bits
    Scan type                        : Progressive
    Bits/(Pixel*Frame)               : 0.043
    Stream size                      : 193 MiB (88%)
    Title                            : ISO Media file produced by Google Inc. Created on: 10/16/2018.
    Encoded date                     : UTC 2018-10-17 06:25:40
    Tagged date                      : UTC 2018-10-17 06:25:40
    Color primaries                  : BT.709-5, BT.1361, IEC 61966-2-4, SMPTE RP177
    Transfer characteristics         : BT.709-5, BT.1361
    Matrix coefficients              : BT.709-5, BT.1361, IEC 61966-2-4 709, SMPTE RP177

    Audio
    ID                               : 2
    Format                           : AAC
    Format/Info                      : Advanced Audio Codec
    Format profile                   : LC
    Codec ID                         : 40
    Duration                         : 27mn 30s
    Bit rate mode                    : Variable
    Bit rate                         : 128 Kbps
    Channel(s)                       : 2 channels
    Channel positions                : Front: L R
    Sampling rate                    : 44.1 KHz
    Compression mode                 : Lossy
    Stream size                      : 25.2 MiB (11%)
    Title                            : ISO Media file produced by Google Inc. Created on: 10/16/2018.
    Encoded date                     : UTC 2018-10-17 06:25:40
    Tagged date                      : UTC 2018-10-17 06:25:40

    Свернуть


    Скриншоты
    [screen]http://img15.lostpic.net/2019/01/09/a3d49de41d3ce273fd31dae44dfa09ee.png[/screen][screen]http://img15.lostpic.net/2019/01/09/4ea98eea03ec862c12b39b306f809b00.png[/screen][screen]http://img15.lostpic.net/2019/01/09/c277652a8cbef6df3c526bf9b6530d99.png[/screen][screen]http://img15.lostpic.net/2019/01/09/85ad5bdb1bf4a1b32fb3363f8e4fc167.png[/screen][screen]http://img15.lostpic.net/2019/01/09/9b2de28f953aac87bdee1771eb5d7ebc.png[/screen][screen]http://img15.lostpic.net/2019/01/09/294ba41b5a690a7ecd51fe5e14c376db.png[/screen][screen]http://img15.lostpic.net/2019/01/09/67204d656577e61e6bea129ed0951550.png[/screen][screen]http://img15.lostpic.net/2019/01/09/99bc4d097f623caed67a0158b186c400.png[/screen][screen]http://img15.lostpic.net/2019/01/09/0bdc43f287197589d9b2efbe7d4e0d17.png[/screen]Свернуть
    Похожие раздачи Искать похожие
    Инструкция по скачиванию
     1  Качаем uTorrent версии 2.0 и выше
     2  После установки, жмем выше под постером на ссылку Скачать [MediaGet] или Скачать .torrent
     3  Открываем скачанный файл через соответствующий клиент: MediaGet или uTorrent
     4  Ждем пока подключатся участники
     5  Качаем
    Комментарии о  Домик на счастье / Будиночок на щастя [Серии 01-16 из 16] | WEBRip 720p 
    Ближайшее в кино
    Вверх