• Игры для PS4
  • Игры для PS3
  • Игры для XBOX360
  • Игры для PC
  • Игры для PS2
  • Игры для PSP
  • Для телефонов
  • Музыка
  • Книги / Журналы
  • Обои
  • Опрос
    Удобен ли сайт в использовании?
      0
    • Очень удобен, все понятно1,1,false,300,full
    • Удобен1,2,false,300,full
    • Средне1,3,false,300,full
    • Неудобен, трудно ориентироваться1,4,false,300,full
    • Совсем неудобен1,5,false,300,full
    Статистика
    Всего онлайн -
    Гостей -
    Пользователей -
    Короли трекера
    
    Благодарности () Закрыть
    Информация о фильме
    Название: Рождественская Песенка года
    Год выпуска: 2019
    Жанр:  Концерт, поп
    В ролях: Тимур Родригез, Юлианна Караулова, Стас Пьеха, Алсу, Николай Басков, M-BAND, Жасмин, Нюша, Дискотека Авария, Зара, Пицца, Кристина Си, Натан, Ирина Дубцова
    Ведущий: Александр Олешко, Лера Кудрявцева

    О фильме: Праздничный концерт с участием звезд эстрады, лауреатов и победителей "Детской Новой Волны" и "Детского Евровидения" разных лет. Самые популярные российские артисты с удовольствием исполнят свои хиты вместе с начинающими звездами. Концерт "Рождественская "Песенка года" по традиции благотворительный - на него приглашены дети из неблагополучных семей и детских домов. Ведь Рождество - это самый любимый праздник всех взрослых и детей, разных стран и всех времен. Именно в этот день происходят волшебство и чудеса, в которые, как в старые времена, начинают верить и самые взрослые родители.

    Выпущено: Россия
    Студия:  «Телекомпания НТВ»
    Продолжительность: 01:24:09
    Перевод: Не требуется

    Файл
    Качество: HDTV 1080i
    Видео: MPEG-4 AVC, ~ 12.1 Мбит/с, 1920x1080
    Аудио: MP2, 2 ch, 192 Кбит/с



    MediaInfo
    General
    ID                               : 1 (0x1)
    Complete name                    : H:Рождественская песенка года.(2019).HDTV 1080i-files-x.ts
    Format                           : MPEG-TS
    File size                        : 7.68 GiB
    Duration                         : 1h 24mn
    Overall bit rate                 : 13.0 Mbps

    Video
    ID                               : 256 (0x100)
    Menu ID                          : 1 (0x1)
    Format                           : AVC
    Format/Info                      : Advanced Video Codec
    Format profile                   : High@L4.0
    Format settings, CABAC           : Yes
    Format settings, ReFrames        : 4 frames
    Codec ID                         : 27
    Duration                         : 1h 24mn
    Bit rate                         : 12.1 Mbps
    Width                            : 1 920 pixels
    Height                           : 1 080 pixels
    Display aspect ratio             : 16:9
    Frame rate                       : 25.000 fps
    Standard                         : Component
    Color space                      : YUV
    Chroma subsampling               : 4:2:0
    Bit depth                        : 8 bits
    Scan type                        : Interlaced
    Scan order                       : Top Field First
    Bits/(Pixel*Frame)               : 0.234
    Stream size                      : 7.19 GiB (94%)
    Color primaries                  : BT.709-5, BT.1361, IEC 61966-2-4, SMPTE RP177
    Transfer characteristics         : BT.709-5, BT.1361
    Matrix coefficients              : BT.709-5, BT.1361, IEC 61966-2-4 709, SMPTE RP177

    Audio
    ID                               : 257 (0x101)
    Menu ID                          : 1 (0x1)
    Format                           : MPEG Audio
    Format version                   : Version 1
    Format profile                   : Layer 2
    Codec ID                         : 3
    Duration                         : 1h 24mn
    Bit rate mode                    : Constant
    Bit rate                         : 192 Kbps
    Channel(s)                       : 2 channels
    Sampling rate                    : 48.0 KHz
    Compression mode                 : Lossy
    Stream size                      : 117 MiB (1%)
    Language                         : English
    Свернуть


    [img]http://s003.radikal.ru/i204/1410/ed/4f31a7578dfb.gif[/img]
    Инструкция по скачиванию
     1  Качаем uTorrent версии 2.0 и выше
     2  После установки, жмем выше под постером на ссылку Скачать [MediaGet] или Скачать .torrent
     3  Открываем скачанный файл через соответствующий клиент: MediaGet или uTorrent
     4  Ждем пока подключатся участники
     5  Качаем
    Комментарии о  Рождественская Песенка года | HDTV 1080i 
    Ближайшее в кино
    Вверх