• Игры для PS4
  • Игры для PS3
  • Игры для XBOX360
  • Игры для PC
  • Игры для PS2
  • Игры для PSP
  • Для телефонов
  • Музыка
  • Книги / Журналы
  • Обои
  • Опрос
    Откуда Вы о нас узнали?
      0
    • От знакомых2,1,false,300,full
    • Из социальных сетей2,2,false,300,full
    • Из поисковых систем2,3,false,300,full
    • Другое2,4,false,300,full
    Статистика
    Всего онлайн -
    Гостей -
    Пользователей -
    Короли трекера
    
    Благодарности () Закрыть
    Информация о фильме
    Название: Рождественская Песенка года
    Год выпуска: 2019
    Жанр:  Концерт, поп
    В ролях: Тимур Родригез, Юлианна Караулова, Стас Пьеха, Алсу, Николай Басков, M-BAND, Жасмин, Нюша, Дискотека Авария, Зара, Пицца, Кристина Си, Натан, Ирина Дубцова
    Ведущий: Александр Олешко, Лера Кудрявцева

    О фильме: Праздничный концерт с участием звезд эстрады, лауреатов и победителей "Детской Новой Волны" и "Детского Евровидения" разных лет. Самые популярные российские артисты с удовольствием исполнят свои хиты вместе с начинающими звездами. Концерт "Рождественская "Песенка года" по традиции благотворительный - на него приглашены дети из неблагополучных семей и детских домов. Ведь Рождество - это самый любимый праздник всех взрослых и детей, разных стран и всех времен. Именно в этот день происходят волшебство и чудеса, в которые, как в старые времена, начинают верить и самые взрослые родители.

    Выпущено: Россия
    Студия: «Телекомпания НТВ»
    Продолжительность: 01:24:09
    Перевод: Не требуется

    Файл
    Качество: HDTVRip
    Видео: XviD, ~ 1911 Кбит/с, 720x400
    Аудио: AC3, 2 ch, 192 Кбит/с


    MediaInfo
    General
    Complete name : D:моё видиоРождественская песенка года.(2019).HDTVRip.Files-x.avi
    Format : AVI
    Format/Info : Audio Video Interleave
    File size : 1.30 GiB
    Duration : 1h 24mn
    Overall bit rate : 2 199 Kbps
    Writing application : VirtualDubMod 1.5.10.3 | www.virtualdub-fr.org || (build 2550/release)
    Writing library : VirtualDubMod build 2550/release

    Video
    ID : 0
    Format : MPEG-4 Visual
    Format profile : Advanced Simple@L5
    Format settings, BVOP : 1
    Format settings, QPel : No
    Format settings, GMC : No warppoints
    Format settings, Matrix : Custom
    Codec ID : XVID
    Codec ID/Hint : XviD
    Duration : 1h 24mn
    Bit rate : 1 911 Kbps
    Width : 720 pixels
    Height : 400 pixels
    Display aspect ratio : 16:9
    Frame rate : 25.000 fps
    Color space : YUV
    Chroma subsampling : 4:2:0
    Bit depth : 8 bits
    Scan type : Progressive
    Compression mode : Lossy
    Bits/(Pixel*Frame) : 0.265
    Stream size : 1.13 GiB (87%)
    Writing library : XviD 73

    Audio
    ID : 1
    Format : AC-3
    Format/Info : Audio Coding 3
    Mode extension : CM (complete main)
    Format settings, Endianness : Big
    Codec ID : 2000
    Duration : 1h 24mn
    Bit rate mode : Constant
    Bit rate : 192 Kbps
    Channel(s) : 2 channels
    Channel positions : Front: L R
    Sampling rate : 48.0 KHz
    Bit depth : 16 bits
    Compression mode : Lossy
    Stream size : 117 MiB (9%)
    Alignment : Split accross interleaves
    Свернуть


    [img]http://s003.radikal.ru/i204/1410/ed/4f31a7578dfb.gif[/img]
    Инструкция по скачиванию
     1  Качаем uTorrent версии 2.0 и выше
     2  После установки, жмем выше под постером на ссылку Скачать [MediaGet] или Скачать .torrent
     3  Открываем скачанный файл через соответствующий клиент: MediaGet или uTorrent
     4  Ждем пока подключатся участники
     5  Качаем
    Комментарии о  Рождественская Песенка года | HDTVRip 
    Ближайшее в кино
    Вверх