• Игры для PS4
  • Игры для PS3
  • Игры для XBOX360
  • Игры для PC
  • Игры для PS2
  • Игры для PSP
  • Для телефонов
  • Музыка
  • Книги / Журналы
  • Обои
  • Опрос
    Откуда Вы о нас узнали?
      0
    • От знакомых2,1,false,300,full
    • Из социальных сетей2,2,false,300,full
    • Из поисковых систем2,3,false,300,full
    • Другое2,4,false,300,full
    Статистика
    Всего онлайн -
    Гостей -
    Пользователей -
    Короли трекера
    
    Благодарности () Закрыть
    Информация о фильме
    Название: Рождество с Григорием Лепсом
    Год выпуска: 2019
    Жанр:  Концерт
    Ведущий: Тимур Родригез, Яна Кошкина, Яна Чурикова, Александр Ревва

    О фильме: В этот вечер на сцене Crocus City Hall традиционно собираются любимые артисты, чтобы поздравить друг друга и зрителей с наступлением самых ярких зимних праздников. Вечер «Рождества» в Crocus City Hall всегда становится особенным, его звездные гости подводят итоги уходящего года и готовятся к встрече нового, дарят лучшие впечатления и искренние эмоции в кругу любимых друзей и близких.

    Выпущено: Россия
    Студия: Первый канал
    Продолжительность: 02:08:46
    Перевод: Не требуется

    Файл
    Качество: HDTVRip
    Видео: XviD, ~ 1900 Кбит/с, 720x400
    Аудио: AC3, 2 ch, 192 Кбит/с


    MediaInfo
                        H:Rojdestvo.Leps.07.01.2019.HDTVRip.Files-x.avi
    Format                           : AVI
    Format/Info                      : Audio Video Interleave
    File size                        : 1.89 GiB
    Duration                         : 2h 8mn
    Overall bit rate                 : 2 102 Kbps
    Writing application              : VirtualDubMod 1.5.10.3 | www.virtualdub-fr.org || (build 2550/release)
    Writing library                  : VirtualDubMod build 2550/release

    Video
    ID                               : 0
    Format                           : MPEG-4 Visual
    Format profile                   : Advanced Simple@L5
    Format settings, BVOP            : 1
    Format settings, QPel            : No
    Format settings, GMC             : No warppoints
    Format settings, Matrix          : Custom
    Codec ID                         : XVID
    Codec ID/Hint                    : XviD
    Duration                         : 2h 8mn
    Bit rate                         : 1 900 Kbps
    Width                            : 720 pixels
    Height                           : 400 pixels
    Display aspect ratio             : 16:9
    Frame rate                       : 25.000 fps
    Color space                      : YUV
    Chroma subsampling               : 4:2:0
    Bit depth                        : 8 bits
    Scan type                        : Progressive
    Compression mode                 : Lossy
    Bits/(Pixel*Frame)               : 0.264
    Stream size                      : 1.71 GiB (90%)
    Writing library                  : XviD 73

    Audio
    ID                               : 1
    Format                           : AC-3
    Format/Info                      : Audio Coding 3
    Mode extension                   : CM (complete main)
    Codec ID                         : 2000
    Duration                         : 2h 8mn
    Bit rate mode                    : Constant
    Bit rate                         : 192 Kbps
    Channel(s)                       : 2 channels
    Channel positions                : Front: L R
    Sampling rate                    : 48.0 KHz
    Bit depth                        : 16 bits
    Compression mode                 : Lossy
    Stream size                      : 177 MiB (9%)
    Alignment                        : Split accross interleaves
    Interleave, duration             : 40 ms (1.00 video frame)
    Interleave, preload duration     : 500 ms
    Свернуть


    [img]http://s003.radikal.ru/i204/1410/ed/4f31a7578dfb.gif[/img]
    Инструкция по скачиванию
     1  Качаем uTorrent версии 2.0 и выше
     2  После установки, жмем выше под постером на ссылку Скачать [MediaGet] или Скачать .torrent
     3  Открываем скачанный файл через соответствующий клиент: MediaGet или uTorrent
     4  Ждем пока подключатся участники
     5  Качаем
    Комментарии о  Рождество с Григорием Лепсом | HDTVRip 
    Ближайшее в кино
    Вверх