• Игры для PS4
  • Игры для PS3
  • Игры для XBOX360
  • Игры для PC
  • Игры для PS2
  • Игры для PSP
  • Для телефонов
  • Музыка
  • Книги / Журналы
  • Обои
  • Опрос
    Откуда Вы о нас узнали?
      0
    • От знакомых2,1,false,300,full
    • Из социальных сетей2,2,false,300,full
    • Из поисковых систем2,3,false,300,full
    • Другое2,4,false,300,full
    Статистика
    Всего онлайн -
    Гостей -
    Пользователей -
    Короли трекера
    
    Благодарности () Закрыть
    Информация о фильме
    Название: Некромантик
    Оригинальное название: Nekromantik
    Год выхода: 1987
    Жанр: ужасы
    Режиссер: Йорг Буттгерайт
    В ролях: Дактри Лоренц, Беатрис Мановски, Гарольд Дундт, Коллосио Шулцендорф, Йорг Буттгерайт, Хольгер Зур, Фолькер Хауптфогель, Харольд Вэйз

    Описание: Герой работает в бригаде труповозки. С работы он носит домой милые сувениры — почку, легкое, сердце, селезенку, хрящик, косточку. Все аккуратно пакуется в баночки и ставится на полочки. Однажды наш юный Вертер приносит домой полусгнивший труп из болота.



    Страна: Германия
    Продолжительность: 01:11:10
    Перевод: Авторский (одноголосый закадровый) Антон Алексеев
    Субтитры: английские
    Оригинальная аудиодорожка: немецкий

    Файл
    Качество: BDRip-AVC
    Видео: 944x720 (4:3), 23.976fps, MPEG-4, 3877 kbps avg, 0.238 bit/pixel
    Аудио 1: 48.0KHz, AC-3, 2 ch (Front: L, R), 192 kbps avg [Rus]
    Аудио 2: 48.0KHz, AC-3, 6 ch (Front: L C R, Side: L R, LFE), 448 kbps avg [Original Ger]



    MediaInfo
    General
    Unique ID                      : 178744288042491298951855535808202472308 (0x8678E5CDE47EC5CEA453627ABA44FB74)
    Complete name                  : Nekromantik 1987 720p BluRay x264-CREEPSHOW.mkv
    Format                         : Matroska
    Format version                 : Version 4 / Version 2
    File size                      : 3.37 GiB
    Duration                       : 1h 13mn
    Overall bit rate               : 6 532 Kbps
    Encoded date                   : UTC 2016-02-05 19:55:20
    Writing application            : mkvmerge v6.1.0 ("Old Devil") built on Mar  4 2013 09:10:42
    Writing library                : libebml v1.3.0 + libmatroska v1.4.0

    Video
    ID                             : 1
    Format                         : AVC
    Format/Info                    : Advanced Video Codec
    Format profile                 : High@L4.1
    Format settings, CABAC         : Yes
    Format settings, ReFrames      : 5 frames
    Codec ID                       : V_MPEG4/ISO/AVC
    Duration                       : 1h 13mn
    Bit rate                       : 5 762 Kbps
    Nominal bit rate               : 6 123 Kbps
    Width                          : 944 pixels
    Height                         : 720 pixels
    Display aspect ratio           : 4:3
    Frame rate mode                : Constant
    Frame rate                     : 23.976 fps
    Color space                    : YUV
    Chroma subsampling             : 4:2:0
    Bit depth                      : 8 bits
    Scan type                      : Progressive
    Bits/(Pixel*Frame)             : 0.354
    Stream size                    : 2.97 GiB (88%)
    Writing library                : x264 core 142 r2491 24e4fed
    Encoding settings              : cabac=1 / ref=5 / deblock=1:-2:-2 / analyse=0x3:0x133 / me=umh / subme=9 / psy=1 / psy_rd=1.00:0.00 / mixed_ref=1 / me_range=16 / chroma_me=1 / trellis=1 / 8x8dct=1 / cqm=0 / deadzone=21,11 / fast_pskip=0 / chroma_qp_offset=-2 / threads=6 / lookahead_threads=1 / sliced_threads=0 / nr=0 / decimate=1 / interlaced=0 / bluray_compat=0 / constrained_intra=0 / bframes=3 / b_pyramid=2 / b_adapt=1 / b_bias=0 / direct=1 / weightb=1 / open_gop=0 / weightp=2 / keyint=250 / keyint_min=23 / scenecut=40 / intra_refresh=0 / rc_lookahead=40 / rc=2pass / mbtree=1 / bitrate=6123 / ratetol=1.0 / qcomp=0.60 / qpmin=0 / qpmax=69 / qpstep=4 / cplxblur=20.0 / qblur=0.5 / ip_ratio=1.40 / aq=1:1.00
    Default                        : Yes
    Forced                         : No

    Audio #1
    ID                             : 2
    Format                         : AC-3
    Format/Info                    : Audio Coding 3
    Mode extension                 : CM (complete main)
    Format settings, Endianness    : Big
    Codec ID                       : A_AC3
    Duration                       : 1h 13mn
    Bit rate mode                  : Constant
    Bit rate                       : 192 Kbps
    Channel(s)                     : 2 channels
    Channel positions              : Front: L R
    Sampling rate                  : 48.0 KHz
    Bit depth                      : 16 bits
    Compression mode               : Lossy
    Stream size                    : 101 MiB (3%)
    Title                          : AVO (Алексеев)
    Language                       : Russian
    Default                        : No
    Forced                         : Yes

    Audio #2
    ID                             : 3
    Format                         : AC-3
    Format/Info                    : Audio Coding 3
    Mode extension                 : CM (complete main)
    Format settings, Endianness    : Big
    Codec ID                       : A_AC3
    Duration                       : 1h 13mn
    Bit rate mode                  : Constant
    Bit rate                       : 448 Kbps
    Channel(s)                     : 6 channels
    Channel positions              : Front: L C R, Side: L R, LFE
    Sampling rate                  : 48.0 KHz
    Bit depth                      : 16 bits
    Compression mode               : Lossy
    Stream size                    : 237 MiB (7%)
    Title                          : Original
    Language                       : German
    Default                        : No
    Forced                         : No

    Text
    ID                             : 4
    Format                         : UTF-8
    Codec ID                       : S_TEXT/UTF8
    Codec ID/Info                  : UTF-8 Plain Text
    Language                       : English
    Default                        : No
    Forced                         : No

    Menu
    00:00:00.000                   : en:00:00:00.000
    00:07:16.227                   : en:00:07:16.227
    00:12:26.496                   : en:00:12:26.496
    00:19:10.983                   : en:00:19:10.983
    00:23:19.565                   : en:00:23:19.565
    00:29:20.634                   : en:00:29:20.634
    00:33:11.281                   : en:00:33:11.281
    00:35:07.272                   : en:00:35:07.272
    00:37:46.598                   : en:00:37:46.598
    00:42:53.070                   : en:00:42:53.070
    00:45:33.314                   : en:00:45:33.314
    00:51:48.814                   : en:00:51:48.814
    00:56:23.589                   : en:00:56:23.589
    01:00:46.726                   : en:01:00:46.726
    01:05:18.581                   : en:01:05:18.581
    01:09:30.416                   : en:01:09:30.416Свернуть
    Похожие раздачи Искать похожие
    Инструкция по скачиванию
     1  Качаем uTorrent версии 2.0 и выше
     2  После установки, жмем выше под постером на ссылку Скачать [MediaGet] или Скачать .torrent
     3  Открываем скачанный файл через соответствующий клиент: MediaGet или uTorrent
     4  Ждем пока подключатся участники
     5  Качаем
    Комментарии о  Некромантик / Nekromantik | BDRip-AVC 
    Ближайшее в кино
    Вверх