• Игры для PS4
  • Игры для PS3
  • Игры для XBOX360
  • Игры для PC
  • Игры для PS2
  • Игры для PSP
  • Для телефонов
  • Музыка
  • Книги / Журналы
  • Обои
  • Опрос
    Откуда Вы о нас узнали?
      0
    • От знакомых2,1,false,300,full
    • Из социальных сетей2,2,false,300,full
    • Из поисковых систем2,3,false,300,full
    • Другое2,4,false,300,full
    Статистика
    Всего онлайн -
    Гостей -
    Пользователей -
    Короли трекера
    
    Благодарности () Закрыть
    Информация о фильме
    Название: Лукас
    Оригинальное название: Lukas
    Год выхода: 2018
    Жанр: боевик, драма
    Режиссер: Жюльен Леклерк
    В ролях: Жан-Клод Ван Дамм, Свева Альвити, Сами Буажила, Сэм Лаувейк, Каарис, Кевин Янссенс, Алиса Версет, Карлос Шрам, Димитри Тивайос, Лорен Д`Илайа

    О фильме:
    На что ты готов ради дочери? Герою придется ответить на этот вопрос, столкнувшись лицом к лицу с полицией, мафией и Интерполом.


    Страна: Франция, Бельгия
    Студия: Labyrinthe Films, Atchafalaya Films, Umedia
    Продолжительность: 01:26:43
    Перевод: Профессиональный (многоголосый, закадровый) | iTunes

    Файл
    Качество: BDRip 720p
    Видео: AVC/H.264, 1280x536, ~5300 Кbps, 23,976 fps
    Звук:
    Аудио 1: AC3, 6 ch, 384 Kbps - Русский
    Аудио 2: DTS, 6 ch, 1509 Kbps - Французский (Fre+Eng)
    Субтитры: Французские (форс)
    Примечание
    Французский трансфер. Полный перевод Свернуть


    Mediainfo
    Общее
    Уникальный идентификатор                 : 279980276595236529436505679798413554458 (0xD2A23D6705EDDEBD85661ED7B577F31A)
    Полное имя                               : Lukas.2018.BDRip.720p.W.mkv
    Формат                                   : Matroska
    Версия формата                           : Version 4
    Размер файла                             : 4,35 Гбайт
    Продолжительность                        : 1 ч. 26 м.
    Общий поток                              : 7186 Кбит/сек
    Название фильма                          : Lukas.2018.BDRip.720p.W
    Дата кодирования                         : UTC 2019-01-09 15:09:02
    Программа кодирования                    : mkvmerge v23.0.0 ("The Bride Said No") 64-bit
    Библиотека кодирования                   : libebml v1.3.6 + libmatroska v1.4.9

    Видео
    Идентификатор                            : 1
    Формат                                   : AVC
    Формат/Информация                        : Advanced Video Codec
    Профиль формата                          : High@L4.1
    Настройки формата                        : CABAC / 12 Ref Frames
    Параметр CABAC формата                   : Да
    Параметр RefFrames формата               : 12 кадров
    Идентификатор кодека                     : V_MPEG4/ISO/AVC
    Продолжительность                        : 1 ч. 26 м.
    Битрейт                                  : 5300 Кбит/сек
    Ширина                                   : 1280 пикселей
    Высота                                   : 536 пикселей
    Соотношение сторон                       : 2,40:1
    Режим частоты кадров                     : Постоянный
    Частота кадров                           : 23,976 (23976/1000) кадра/сек
    Цветовое пространство                    : YUV
    Субдискретизация насыщенности            : 4:2:0
    Битовая глубина                          : 8 бит
    Тип развёртки                            : Прогрессивная
    Бит/(Пиксели*Кадры)                      : 0.322
    Размер потока                            : 3,20 Гбайт (74%)
    Заголовок                                : rip by -=walledol=-
    Библиотека кодирования                   : x264 core 157 r2935 545de2f
    Настройки программы                      : cabac=1 / ref=12 / deblock=1:-3:-3 / analyse=0x3:0x133 / me=umh / subme=11 / psy=1 / psy_rd=1.00:0.02 / mixed_ref=1 / me_range=32 / chroma_me=1 / trellis=2 / 8x8dct=1 / cqm=0 / deadzone=21,11 / fast_pskip=0 / chroma_qp_offset=-3 / threads=12 / lookahead_threads=3 / sliced_threads=0 / nr=0 / decimate=1 / interlaced=0 / bluray_compat=0 / constrained_intra=0 / bframes=12 / b_pyramid=2 / b_adapt=2 / b_bias=0 / direct=3 / weightb=1 / open_gop=0 / weightp=2 / keyint=240 / keyint_min=23 / scenecut=40 / intra_refresh=0 / rc_lookahead=60 / rc=2pass / mbtree=0 / bitrate=5300 / ratetol=1.0 / qcomp=0.60 / qpmin=0 / qpmax=69 / qpstep=4 / cplxblur=20.0 / qblur=0.5 / vbv_maxrate=30000 / vbv_bufsize=33000 / nal_hrd=none / filler=0 / ip_ratio=1.40 / pb_ratio=1.30 / aq=3:0.70
    Язык                                     : French
    Default                                  : Да
    Forced                                   : Нет

    Аудио #1
    Идентификатор                            : 2
    Формат                                   : AC-3
    Формат/Информация                        : Audio Coding 3
    Коммерческое название                    : Dolby Digital
    Идентификатор кодека                     : A_AC3
    Продолжительность                        : 1 ч. 26 м.
    Вид битрейта                             : Постоянный
    Битрейт                                  : 384 Кбит/сек
    Каналы                                   : 6 каналов
    Channel layout                           : L R C LFE Ls Rs
    Частота                                  : 48,0 КГц
    Частота кадров                           : 31,250 кадров/сек (1536 SPF)
    Битовая глубина                          : 16 бит
    Метод сжатия                             : С потерями
    Размер потока                            : 238 Мбайт (5%)
    Заголовок                                : DUB | iTunes
    Язык                                     : Russian
    ServiceKind                              : Complete Main
    Default                                  : Да
    Forced                                   : Нет

    Аудио #2
    Идентификатор                            : 3
    Формат                                   : DTS
    Формат/Информация                        : Digital Theater Systems
    Идентификатор кодека                     : A_DTS
    Продолжительность                        : 1 ч. 26 м.
    Вид битрейта                             : Постоянный
    Битрейт                                  : 1509 Кбит/сек
    Каналы                                   : 6 каналов
    Channel layout                           : C L R Ls Rs LFE
    Частота                                  : 48,0 КГц
    Частота кадров                           : 93,750 кадра/сек (512 SPF)
    Битовая глубина                          : 24 бит
    Метод сжатия                             : С потерями
    Размер потока                            : 936 Мбайт (21%)
    Заголовок                                : Fre+Eng
    Язык                                     : French
    Default                                  : Нет
    Forced                                   : Нет

    Текст
    Идентификатор                            : 4
    Формат                                   : UTF-8
    Идентификатор кодека                     : S_TEXT/UTF8
    Идентификатор кодека/Информация          : UTF-8 Plain Text
    Продолжительность                        : 1 ч. 18 м.
    Битрейт                                  : 9 бит/сек
    ElementCount                             : 228
    Размер потока                            : 5,29 Кбайт (0%)
    Заголовок                                : Forced
    Язык                                     : French
    Default                                  : Нет
    Forced                                   : Нет

    Меню
    00:00:00.000                             : en:Chapter 1
    00:10:25.583                             : en:Chapter 2
    00:20:54.878                             : en:Chapter 3
    00:31:36.519                             : en:Chapter 4
    00:44:58.153                             : en:Chapter 5
    00:59:50.587                             : en:Chapter 6
    01:12:07.323                             : en:Chapter 7
    01:21:47.694                             : en:Chapter 8
    01:26:43.031                             : en:Chapter 9Свернуть


    Похожие раздачи Искать похожие
    Инструкция по скачиванию
     1  Качаем uTorrent версии 2.0 и выше
     2  После установки, жмем выше под постером на ссылку Скачать [MediaGet] или Скачать .torrent
     3  Открываем скачанный файл через соответствующий клиент: MediaGet или uTorrent
     4  Ждем пока подключатся участники
     5  Качаем
    Комментарии о  Лукас / Lukas | BDRip 720p 
    Ближайшее в кино
    Вверх