• Игры для PS4
  • Игры для PS3
  • Игры для XBOX360
  • Игры для PC
  • Игры для PS2
  • Игры для PSP
  • Для телефонов
  • Музыка
  • Книги / Журналы
  • Обои
  • Опрос
    Откуда Вы о нас узнали?
      0
    • От знакомых2,1,false,300,full
    • Из социальных сетей2,2,false,300,full
    • Из поисковых систем2,3,false,300,full
    • Другое2,4,false,300,full
    Статистика
    Всего онлайн -
    Гостей -
    Пользователей -
    Короли трекера
    
    Благодарности () Закрыть
    Информация о фильме
    Название: И как Икар
    Оригинальное название: I... comme Icare
    Год выхода: 1979
    Жанр: Триллер, драма, криминал, детектив
    Режиссер: Анри Вернёй
    В ролях: Ив Монтан, Мишель Эчеверри, Пьер Вернье, Роже Планшон, Жак Дени, Жак Серей, Жан-Франсуа Гарро, Мишель Альбертини, Жорж Беллер, Ролан Бланш

    О фильме:
    Убит президент Жари, но комиссия по расследованию заключает, что это самоубийство. С такой версией не согласен прокурор Вольнэ. Он обнаруживает, что все основные свидетели убиты, более того, убит и сам стрелявший. Прокурор приходит к выводу, что убийство — часть некоего секретного плана под названием «И как Икар».



    Страна: Франция
    Студия: Antenne-2, Société Française de Production (SFP), V Films
    Продолжительность: 02:08:35
    Перевод: Профессиональный многоголосый закадровый

    Файл
    Кодек: h.264
    Качество: BDRip 1080p
    Видео: 15600 Кбит/сек, AVC 1792*1080 (5:3), 24,000 кадра/сек, CABAC
    Аудио 1: Русский, 192 Кбит/сек, 48,0 КГц, 16 бит, 2 канала, AC-3
    Аудио 2: Французский, 768 Кбит/сек, 48,0 КГц, 24 бит, 2 канала, DTS
    Формат субтитров: UTF

    MediaInfo

    Общее
    Уникальный идентификатор                 : 220831140050074364771775727943480553775 (0xA62287D0A77BF4A36A62E0C4E92CB12F)
    Полное имя                               : O:MONARХудожественные фильмыЗарубежное киноИ как Икар (1979) BDRip 1080p.mkv
    Формат                                   : Matroska
    Версия формата                           : Version 4 / Version 2
    Размер файла                             : 14,9 Гбайт
    Продолжительность                        : 2 ч. 8 м.
    Общий поток                              : 16,6 Мбит/сек
    Название фильма                          : I... comme Icare (1979)
    Дата кодирования                         : UTC 2018-03-08 19:31:26
    Программа кодирования                    : mkvmerge v19.0.0 ("Brave Captain") 64-bit
    Библиотека кодирования                   : libebml v1.3.5 + libmatroska v1.4.8

    Видео
    Идентификатор                            : 1
    Формат                                   : AVC
    Формат/Информация                        : Advanced Video Codec
    Профиль формата                          : High@L4.1
    Настройки формата                        : CABAC / 4 Ref Frames
    Параметр CABAC формата                   : Да
    Параметр RefFrames формата               : 4 кадра
    Идентификатор кодека                     : V_MPEG4/ISO/AVC
    Продолжительность                        : 2 ч. 8 м.
    Битрейт                                  : 15,6 Мбит/сек
    Ширина                                   : 1792 пикселя
    Высота                                   : 1080 пикселей
    Соотношение сторон                       : 5:3
    Режим частоты кадров                     : Постоянный
    Частота кадров                           : 24,000 кадра/сек
    Цветовое пространство                    : YUV
    Субдискретизация насыщенности            : 4:2:0
    Битовая глубина                          : 8 бит
    Тип развёртки                            : Прогрессивная
    Бит/(Пиксели*Кадры)                      : 0.336
    Размер потока                            : 14,0 Гбайт (94%)
    Библиотека кодирования                   : x264 core 155 r2901 7d0ff22
    Настройки программы                      : cabac=1 / ref=4 / deblock=1:-1:-1 / analyse=0x3:0x133 / me=umh / subme=10 / psy=1 / psy_rd=1.00:0.15 / mixed_ref=1 / me_range=24 / chroma_me=1 / trellis=2 / 8x8dct=1 / cqm=0 / deadzone=21,11 / fast_pskip=1 / chroma_qp_offset=-3 / threads=6 / lookahead_threads=1 / sliced_threads=0 / nr=0 / decimate=1 / interlaced=0 / bluray_compat=0 / constrained_intra=0 / bframes=8 / b_pyramid=2 / b_adapt=2 / b_bias=0 / direct=3 / weightb=1 / open_gop=0 / weightp=2 / keyint=250 / keyint_min=24 / scenecut=40 / intra_refresh=0 / rc_lookahead=60 / rc=crf / mbtree=1 / crf=19.0 / qcomp=0.60 / qpmin=0 / qpmax=69 / qpstep=4 / ip_ratio=1.40 / aq=1:1.00
    Язык                                     : French
    Default                                  : Да
    Forced                                   : Нет

    Аудио #1
    Идентификатор                            : 2
    Формат                                   : AC-3
    Формат/Информация                        : Audio Coding 3
    Идентификатор кодека                     : A_AC3
    Продолжительность                        : 2 ч. 8 м.
    Вид битрейта                             : Постоянный
    Битрейт                                  : 192 Кбит/сек
    Каналы                                   : 2 канала
    Расположение каналов                     : Front: L R
    Частота                                  : 48,0 КГц
    Частота кадров                           : 31,250 кадров/сек (1536 SPF)
    Битовая глубина                          : 16 бит
    Метод сжатия                             : С потерями
    Размер потока                            : 177 Мбайт (1%)
    Заголовок                                : MVO
    Язык                                     : Russian
    ServiceKind/String                       : Complete Main
    Default                                  : Да
    Forced                                   : Нет

    Аудио #2
    Идентификатор                            : 3
    Формат                                   : DTS
    Формат/Информация                        : Digital Theater Systems
    Идентификатор кодека                     : A_DTS
    Продолжительность                        : 2 ч. 8 м.
    Вид битрейта                             : Постоянный
    Битрейт                                  : 768 Кбит/сек
    Каналы                                   : 2 канала
    Расположение каналов                     : Front: L R
    Частота                                  : 48,0 КГц
    Частота кадров                           : 93,750 кадра/сек (512 SPF)
    Битовая глубина                          : 24 бит
    Метод сжатия                             : С потерями
    Размер потока                            : 706 Мбайт (5%)
    Заголовок                                : original
    Язык                                     : French
    Default                                  : Нет
    Forced                                   : Нет

    Текст
    Идентификатор                            : 4
    Формат                                   : UTF-8
    Идентификатор кодека                     : S_TEXT/UTF8
    Идентификатор кодека/Информация          : UTF-8 Plain Text
    Продолжительность                        : 2 ч. 6 м.
    Битрейт                                  : 54 бит/сек
    ElementCount                             : 1246
    Размер потока                            : 50,6 Кбайт (0%)
    Заголовок                                : srt
    Язык                                     : English
    Default                                  : Нет
    Forced                                   : Нет

    Меню
    00:00:00.000                             : en:Ch. 01
    00:10:49.917                             : en:Ch. 02
    00:23:09.167                             : en:Ch. 03
    00:29:12.625                             : en:Ch. 04
    00:39:54.833                             : en:Ch. 05
    00:49:02.167                             : en:Ch. 06
    01:01:03.000                             : en:Ch. 07
    01:09:31.125                             : en:Ch. 08
    01:20:17.917                             : en:Ch. 09
    01:28:37.792                             : en:Ch. 10
    01:41:07.000                             : en:Ch. 11
    01:50:33.458                             : en:Ch. 12
    Свернуть


    MediaInfo рипа с KG

    General
    Complete name : I.comme.Icare.1979.BDRip.x264.1080p.AAC.mkv
    Format : Matroska
    Format version : Version 4 / Version 2
    File size : 14.1 GiB
    Duration : 2 h 8 min
    Overall bit rate : 15.8 Mb/s
    Writing application : mkvmerge v21.0.0 ("Tardigrades Will Inherit The Earth") 64-bit
    Writing library : libebml v1.3.5 + libmatroska v1.4.8

    Video
    ID : 1
    Format : AVC
    Format/Info : Advanced Video Codec
    Format profile : High@L4.1
    Format settings : CABAC / 4 Ref Frames
    Format settings, CABAC : Yes
    Format settings, RefFrames : 4 frames
    Codec ID : V_MPEG4/ISO/AVC
    Duration : 2 h 8 min
    Bit rate : 15.6 Mb/s
    Width : 1 792 pixels
    Height : 1 080 pixels
    Display aspect ratio : 5:3
    Frame rate mode : Constant
    Frame rate : 24.000 FPS
    Color space : YUV
    Chroma subsampling : 4:2:0
    Bit depth : 8 bits
    Scan type : Progressive
    Bits/(Pixel*Frame) : 0.336
    Stream size : 14.0 GiB (99%)
    Writing library : x264 core 155 r2901 7d0ff22
    Encoding settings : cabac=1 / ref=4 / deblock=1:-1:-1 / analyse=0x3:0x133 / me=umh / subme=10 / psy=1 / psy_rd=1.00:0.15 / mixed_ref=1 / me_range=24 / chroma_me=1 / trellis=2 / 8x8dct=1 / cqm=0 / deadzone=21,11 / fast_pskip=1 / chroma_qp_offset=-3 / threads=6 / lookahead_threads=1 / sliced_threads=0 / nr=0 / decimate=1 / interlaced=0 / bluray_compat=0 / constrained_intra=0 / bframes=8 / b_pyramid=2 / b_adapt=2 / b_bias=0 / direct=3 / weightb=1 / open_gop=0 / weightp=2 / keyint=250 / keyint_min=24 / scenecut=40 / intra_refresh=0 / rc_lookahead=60 / rc=crf / mbtree=1 / crf=19.0 / qcomp=0.60 / qpmin=0 / qpmax=69 / qpstep=4 / ip_ratio=1.40 / aq=1:1.00
    Default : Yes
    Forced : No

    Audio
    ID : 2
    Format : AAC
    Format/Info : Advanced Audio Codec
    Format profile : LC
    Codec ID : A_AAC-2
    Duration : 2 h 8 min
    Bit rate : 128 kb/s
    Channel(s) : 2 channels
    Channel positions : Front: L R
    Sampling rate : 48.0 kHz
    Frame rate : 46.875 FPS (1024 SPF)
    Compression mode : Lossy
    Stream size : 118 MiB (1%)
    Language : French
    Default : Yes
    Forced : No

    Text #1
    ID : 3
    Format : UTF-8
    Codec ID : S_TEXT/UTF8
    Codec ID/Info : UTF-8 Plain Text
    Duration : 2 h 6 min
    Bit rate : 54 b/s
    Count of elements : 1249
    Stream size : 50.6 KiB (0%)
    Language : Spanish
    Default : Yes
    Forced : No

    Text #2
    ID : 4
    Format : UTF-8
    Codec ID : S_TEXT/UTF8
    Codec ID/Info : UTF-8 Plain Text
    Duration : 2 h 6 min
    Bit rate : 52 b/s
    Count of elements : 1247
    Stream size : 49.0 KiB (0%)
    Language : English
    Default : No
    Forced : No

    Text #3
    ID : 5
    Format : UTF-8
    Codec ID : S_TEXT/UTF8
    Codec ID/Info : UTF-8 Plain Text
    Duration : 2 h 5 min
    Bit rate : 54 b/s
    Count of elements : 1232
    Stream size : 50.1 KiB (0%)
    Language : German
    Default : No
    Forced : No

    Menu
    00:00:00.000 : en:Ch. 01
    00:10:49.917 : en:Ch. 02
    00:23:09.167 : en:Ch. 03
    00:29:12.625 : en:Ch. 04
    00:39:54.833 : en:Ch. 05
    00:49:02.167 : en:Ch. 06
    01:01:03.000 : en:Ch. 07
    01:09:31.125 : en:Ch. 08
    01:20:17.917 : en:Ch. 09
    01:28:37.792 : en:Ch. 10
    01:41:07.000 : en:Ch. 11
    01:50:33.458 : en:Ch. 12
    Свернуть


    Похожие раздачи Искать похожие
    Инструкция по скачиванию
     1  Качаем uTorrent версии 2.0 и выше
     2  После установки, жмем выше под постером на ссылку Скачать [MediaGet] или Скачать .torrent
     3  Открываем скачанный файл через соответствующий клиент: MediaGet или uTorrent
     4  Ждем пока подключатся участники
     5  Качаем
    Комментарии о  И как Икар / I... comme Icare | BDRip 1080p 
    Ближайшее в кино
    Вверх