• Игры для PS4
  • Игры для PS3
  • Игры для XBOX360
  • Игры для PC
  • Игры для PS2
  • Игры для PSP
  • Для телефонов
  • Музыка
  • Книги / Журналы
  • Обои
  • Опрос
    Откуда Вы о нас узнали?
      0
    • От знакомых2,1,false,300,full
    • Из социальных сетей2,2,false,300,full
    • Из поисковых систем2,3,false,300,full
    • Другое2,4,false,300,full
    Статистика
    Всего онлайн -
    Гостей -
    Пользователей -
    Короли трекера
    
    Благодарности () Закрыть
    Агент Джонни Инглиш 3.0 / Johnny English Strikes Again

    «Не всегда интеллект красит мужчину»

    Год выпуска: 2018
    Страна: Великобритания, Франция, США / Universal Pictures, Studio Canal, Working Title Films
    Жанр: боевик, комедия, приключения
    Продолжительность: 01:28:33
    Перевод: Профессиональный (полное дублирование) [iTunes]

    Режиссер: Дэвид Керр

    В ролях: Эмма Томпсон, Ольга Куриленко, Роуэн Эткинсон, Джейк Лэси, Бен Миллер, Миранда Хеннесси, Адам Джеймс, Пиппа Беннетт-Уорнер, Ирена Тишина, Джеймс Илс

    Описание:
    Когда все агенты секретной службы Её Величества внезапно выходят из строя, в игру вступает запасной вариант. Образец английского стиля и любимец роковых красоток; король безвыходных ситуаций и хранитель аналоговых традиций в цифровом мире, агент Джонни Инглиш - боль и гордость британской разведки. Этому парню есть что взбалтывать, и он взболтает не по-детски.



    Кодек: H.264
    Качество: BDRip-AVC | исх. Johnny.English.Strikes.Again.2018.COMPLETE.BLURAY-PCH |
    Видео: MPEG-4 AVC, 1024x428 (1.85:1), 23.976 fps, ~1643 kbps avg, 0.156 bit/pixel
    Звук 1: 48 kHz, AC3 Dolby Digital, 5/1 ch, ~384 kbps avg - Rus
    Звук 2: 48 kHz, AC3 Dolby Digital, 5/1 ch, ~448 kbps avg
    Субтитры: Английские

    ОтчетМедиаИнфо

    General
    Unique ID                                : 254461159677452190150940581356111360118 (0xBF6F6FCC4494B050B1C51FE368B77076)
    Complete name                            : D:Johnny.English.Strikes.Again.2018.iTunes.BDRip.AVC.ExKinoRay.mkv
    Format                                   : Matroska
    Format version                           : Version 2
    File size                                : 1.53 GiB
    Duration                                 : 1 h 28 min
    Overall bit rate                         : 2 475 kb/s
    Movie name                               : Johnny English Strikes Again 2018 from ExkinoRay
    Encoded date                             : UTC 2019-01-10 00:13:20
    Writing application                      : mkvmerge v5.6.0 ("Kenya Kane") built on May 27 2012 16:44:04
    Writing library                          : libebml v1.2.3 + libmatroska v1.3.0

    Video
    ID                                       : 1
    Format                                   : AVC
    Format/Info                              : Advanced Video Codec
    Format profile                           : High@L4.1
    Format settings, CABAC                   : Yes
    Format settings, ReFrames                : 11 frames
    Codec ID                                 : V_MPEG4/ISO/AVC
    Duration                                 : 1 h 28 min
    Bit rate                                 : 1 643 kb/s
    Width                                    : 1 024 pixels
    Height                                   : 428 pixels
    Display aspect ratio                     : 2.40:1
    Frame rate mode                          : Constant
    Frame rate                               : 23.976 (23976/1000) FPS
    Color space                              : YUV
    Chroma subsampling                       : 4:2:0
    Bit depth                                : 8 bits
    Scan type                                : Progressive
    Bits/(Pixel*Frame)                       : 0.156
    Stream size                              : 1 009 MiB (64%)
    Title                                    : Enigma
    Writing library                          : x264 core 152 r2851 ba24899
    Encoding settings                        : cabac=1 / ref=11 / deblock=1:-2:-2 / analyse=0x3:0x113 / me=umh / subme=10 / psy=1 / psy_rd=1.02:0.06 / mixed_ref=1 / me_range=32 / chroma_me=1 / trellis=2 / 8x8dct=1 / cqm=0 / deadzone=21,11 / fast_pskip=0 / chroma_qp_offset=-3 / threads=12 / lookahead_threads=3 / sliced_threads=0 / nr=0 / decimate=0 / interlaced=0 / bluray_compat=0 / constrained_intra=0 / bframes=11 / b_pyramid=2 / b_adapt=2 / b_bias=0 / direct=3 / weightb=1 / open_gop=0 / weightp=2 / keyint=240 / keyint_min=23 / scenecut=40 / intra_refresh=0 / rc_lookahead=40 / rc=2pass / mbtree=0 / bitrate=1643 / ratetol=1.0 / qcomp=0.60 / qpmin=0 / qpmax=51 / qpstep=4 / cplxblur=20.0 / qblur=0.5 / vbv_maxrate=50000 / vbv_bufsize=62500 / nal_hrd=none / filler=0 / ip_ratio=1.40 / pb_ratio=1.30 / aq=2:0.90
    Language                                 : English
    Default                                  : Yes
    Forced                                   : No
    Color range                              : Limited
    Color primaries                          : BT.709
    Transfer characteristics                 : BT.709
    Matrix coefficients                      : BT.709

    Audio #1
    ID                                       : 2
    Format                                   : AC-3
    Format/Info                              : Audio Coding 3
    Mode extension                           : CM (complete main)
    Format settings, Endianness              : Big
    Codec ID                                 : A_AC3
    Duration                                 : 1 h 28 min
    Bit rate mode                            : Constant
    Bit rate                                 : 384 kb/s
    Channel(s)                               : 6 channels
    Channel positions                        : Front: L C R, Side: L R, LFE
    Sampling rate                            : 48.0 kHz
    Frame rate                               : 31.250 FPS (1536 spf)
    Compression mode                         : Lossy
    Stream size                              : 243 MiB (16%)
    Title                                    : iTunes
    Language                                 : Russian
    Default                                  : Yes
    Forced                                   : No

    Audio #2
    ID                                       : 3
    Format                                   : AC-3
    Format/Info                              : Audio Coding 3
    Mode extension                           : CM (complete main)
    Format settings, Endianness              : Big
    Codec ID                                 : A_AC3
    Duration                                 : 1 h 28 min
    Bit rate mode                            : Constant
    Bit rate                                 : 448 kb/s
    Channel(s)                               : 6 channels
    Channel positions                        : Front: L C R, Side: L R, LFE
    Sampling rate                            : 48.0 kHz
    Frame rate                               : 31.250 FPS (1536 spf)
    Compression mode                         : Lossy
    Stream size                              : 284 MiB (18%)
    Language                                 : English
    Default                                  : No
    Forced                                   : No

    Text #1
    ID                                       : 4
    Format                                   : UTF-8
    Codec ID                                 : S_TEXT/UTF8
    Codec ID/Info                            : UTF-8 Plain Text
    Language                                 : English
    Default                                  : No
    Forced                                   : No

    Text #2
    ID                                       : 5
    Format                                   : UTF-8
    Codec ID                                 : S_TEXT/UTF8
    Codec ID/Info                            : UTF-8 Plain Text
    Title                                    : Commentory
    Language                                 : English
    Default                                  : No
    Forced                                   : No

    Menu
    00:00:00.000                             : en:Chapter 1
    00:05:06.681                             : en:Chapter 2
    00:09:05.378                             : en:Chapter 3
    00:13:14.794                             : en:Chapter 4
    00:19:22.370                             : en:Chapter 5
    00:21:31.832                             : en:Chapter 6
    00:26:41.975                             : en:Chapter 7
    00:32:31.241                             : en:Chapter 8
    00:34:48.086                             : en:Chapter 9
    00:39:49.429                             : en:Chapter 10
    00:45:49.121                             : en:Chapter 11
    00:51:22.204                             : en:Chapter 12
    00:54:31.852                             : en:Chapter 13
    00:58:58.201                             : en:Chapter 14
    01:02:58.441                             : en:Chapter 15
    01:08:21.597                             : en:Chapter 16
    01:11:40.963                             : en:Chapter 17
    01:15:03.416                             : en:Chapter 18
    01:20:54.808                             : en:Chapter 19
    01:23:52.527                             : en:Chapter 20

    Свернуть


    [img]http://img15.lostpic.net/2019/01/03/b17730c085a08a3e4277d45887af4a1f.png[/img][img]http://img15.lostpic.net/2019/01/03/958497041eaafa36a594b6a1f7104bcf.png[/img][img]http://img15.lostpic.net/2019/01/03/e49ef39d6ca13fc0b030b65a628009b8.png[/img][img]http://img15.lostpic.net/2019/01/03/7e6f1f704c8b4ff0fc2ac47248f06f76.png[/img]
    Инструкция по скачиванию
     1  Качаем uTorrent версии 2.0 и выше
     2  После установки, жмем выше под постером на ссылку Скачать [MediaGet] или Скачать .torrent
     3  Открываем скачанный файл через соответствующий клиент: MediaGet или uTorrent
     4  Ждем пока подключатся участники
     5  Качаем
    Комментарии о  Агент Джонни Инглиш 3.0 / Johnny English Strikes Again | BDRip-AVC 
    Ближайшее в кино
    Вверх