• Игры для PS4
  • Игры для PS3
  • Игры для XBOX360
  • Игры для PC
  • Игры для PS2
  • Игры для PSP
  • Для телефонов
  • Музыка
  • Книги / Журналы
  • Обои
  • Опрос
    Откуда Вы о нас узнали?
      0
    • От знакомых2,1,false,300,full
    • Из социальных сетей2,2,false,300,full
    • Из поисковых систем2,3,false,300,full
    • Другое2,4,false,300,full
    Статистика
    Всего онлайн -
    Гостей -
    Пользователей -
    Короли трекера
    
    Благодарности () Закрыть
    Информация о фильме
    Название: Агент Джонни Инглиш 3.0
    Оригинальное название: Johnny English Strikes Again
    Год выхода: 2018
    Жанр: Боевик, комедия, приключения
    Режиссер: Дэвид Керр
    В ролях: Роуэн Аткинсон, Эмма Томпсон, Ольга Куриленко, Джейк Лэси, Бен Миллер, Миранда Хеннесси, Адам Джеймс, Пиппа Беннетт-Уорнер, Ирена Тишина, Джеймс Илс



    О фильме: Когда все агенты секретной службы Её Величества внезапно выходят из строя, в игру вступает запасной вариант. Образец английского стиля и любимец роковых красоток; король безвыходных ситуаций и хранитель аналоговых традиций в цифровом мире, агент Джонни Инглиш — боль и гордость британской разведки. Этому парню есть что взбалтывать, и он взболтает не по-детски.

    Страна: Великобритания, Франция, США
    Студия: Universal Pictures, Studio Canal, Working Title Films, Perfect World Pictures
    Продолжительность: 01:28:33
    Перевод: Дублированный | iTunes

    Качество: BDRip 720p
    Видео: MPEG-4 AVC, 1280x536, 5000 Kbit/s, 23.976 fps
    Звук:
    Аудио #01: 48 kHz, AC3, 5.1, 384 Kbps | iTunes | RUS |[img]http://img11.lostpic.net/2018/08/13/7c2ebc4025c59bfa2d99e99b51a513dc.png[/img]
    Аудио #02: 48 kHz, DTS, 5.1, 1510 Kbps | Оригинал |  ENG |[img]http://img11.lostpic.net/2018/08/13/9611f09865bbb093dacbc8ec792c4ceb.png[/img]
    Субтитры: Английские

    [img]http://img15.lostpic.net/2019/01/09/0804b5934c8e70c49648b8814f9958c1.png[/img][img]http://img15.lostpic.net/2019/01/09/6d4bff06b34e1ab3a70e1c22e8023ed3.png[/img][img]http://img15.lostpic.net/2019/01/09/9770c6b9d9d6025f8159245f368b1ea4.png[/img][img]http://img15.lostpic.net/2019/01/09/36d4e31ce93af3e230e961f79aaba47b.png[/img][img]http://img15.lostpic.net/2019/01/09/935c3ff228ee1916077d594065bcc22c.png[/img]

    MI
    General
    Unique ID                   : 278511777932675899914721122994858346622 (0xD1876AD4132FAAAA75DE4171DDCDC87E)
    Complete name               : D:Video111Johnny.English.Strikes.Again.2018.BDRip.720p.seleZen.mkv
    Format                      : Matroska
    Format version              : Version 4
    File size                   : 4.26 GiB
    Duration                    : 1 h 28 min
    Overall bit rate            : 6 880 kb/s
    Movie name                  : Johnny English Strikes Again 2018 from селезень
    Encoded date                : UTC 2019-01-10 05:41:07
    Writing application         : mkvmerge v29.0.0 ("Like It Or Not") 64-bit
    Writing library             : libebml v1.3.6 + libmatroska v1.4.9

    Video
    ID                          : 1
    Format                      : AVC
    Format/Info                 : Advanced Video Codec
    Format profile              : High@L4.1
    Format settings             : CABAC / 12 Ref Frames
    Format settings, CABAC      : Yes
    Format settings, ReFrames   : 12 frames
    Codec ID                    : V_MPEG4/ISO/AVC
    Duration                    : 1 h 28 min
    Bit rate                    : 5 000 kb/s
    Width                       : 1 280 pixels
    Height                      : 536 pixels
    Display aspect ratio        : 2.40:1
    Frame rate mode             : Constant
    Frame rate                  : 23.976 (24000/1001) FPS
    Color space                 : YUV
    Chroma subsampling          : 4:2:0
    Bit depth                   : 8 bits
    Scan type                   : Progressive
    Bits/(Pixel*Frame)          : 0.304
    Stream size                 : 3.08 GiB (72%)
    Title                       : seleZen
    Writing library             : x264 core 148 r2705kMod 3f5ed56
    Encoding settings           : cabac=1 / ref=12 / deblock=1:-2:-2 / analyse=0x3:0x133 / me=umh / subme=11 / psy=1 / fade_compensate=0.00 / psy_rd=1.05:0.05 / mixed_ref=1 / me_range=48 / chroma_me=1 / trellis=2 / 8x8dct=1 / cqm=0 / deadzone=21,11 / fast_pskip=0 / chroma_qp_offset=-3 / threads=12 / lookahead_threads=3 / sliced_threads=0 / nr=0 / decimate=0 / interlaced=0 / bluray_compat=0 / constrained_intra=0 / fgo=0 / bframes=10 / b_pyramid=2 / b_adapt=2 / b_bias=0 / direct=3 / weightb=1 / open_gop=0 / weightp=2 / keyint=240 / keyint_min=23 / scenecut=40 / intra_refresh=0 / rc_lookahead=50 / rc=2pass / mbtree=0 / bitrate=5000 / ratetol=1.0 / qcomp=0.60 / qpmin=0 / qpmax=51 / qpstep=4 / cplxblur=20.0 / qblur=0.5 / vbv_maxrate=50000 / vbv_bufsize=62500 / nal_hrd=none / filler=0 / ip_ratio=1.40 / pb_ratio=1.30 / aq=3:0.80
    Language                    : English
    Default                     : Yes
    Forced                      : No

    Audio #1
    ID                          : 2
    Format                      : AC-3
    Format/Info                 : Audio Coding 3
    Commercial name             : Dolby Digital
    Codec ID                    : A_AC3
    Duration                    : 1 h 28 min
    Bit rate mode               : Constant
    Bit rate                    : 384 kb/s
    Channel(s)                  : 6 channels
    Channel layout              : L R C LFE Ls Rs
    Sampling rate               : 48.0 kHz
    Frame rate                  : 31.250 FPS (1536 SPF)
    Bit depth                   : 16 bits
    Compression mode            : Lossy
    Stream size                 : 243 MiB (6%)
    Title                       : iTunes
    Language                    : Russian
    Service kind                : Complete Main
    Default                     : Yes
    Forced                      : Yes

    Audio #2
    ID                          : 3
    Format                      : DTS
    Format/Info                 : Digital Theater Systems
    Codec ID                    : A_DTS
    Duration                    : 1 h 28 min
    Bit rate mode               : Constant
    Bit rate                    : 1 509 kb/s
    Channel(s)                  : 6 channels
    Channel layout              : C L R Ls Rs LFE
    Sampling rate               : 48.0 kHz
    Frame rate                  : 93.750 FPS (512 SPF)
    Bit depth                   : 24 bits
    Compression mode            : Lossy
    Stream size                 : 956 MiB (22%)
    Title                       : Original
    Language                    : English
    Default                     : No
    Forced                      : No

    Text
    ID                          : 4
    Format                      : UTF-8
    Codec ID                    : S_TEXT/UTF8
    Codec ID/Info               : UTF-8 Plain Text
    Duration                    : 1 h 22 min
    Bit rate                    : 56 b/s
    Count of elements           : 1022
    Stream size                 : 34.3 KiB (0%)
    Title                       : Full
    Language                    : English
    Default                     : No
    Forced                      : No

    Menu
    00:00:00.000                : :Chapter 01
    00:05:06.681                : :Chapter 02
    00:09:05.378                : :Chapter 03
    00:13:14.794                : :Chapter 04
    00:19:22.369                : :Chapter 05
    00:21:31.832                : :Chapter 06
    00:26:41.975                : :Chapter 07
    00:32:31.240                : :Chapter 08
    00:34:48.086                : :Chapter 09
    00:39:49.428                : :Chapter 10
    00:45:49.121                : :Chapter 11
    00:51:22.204                : :Chapter 12
    00:54:31.851                : :Chapter 13
    00:58:58.201                : :Chapter 14
    01:02:58.441                : :Chapter 15
    01:08:21.597                : :Chapter 16
    01:11:40.963                : :Chapter 17
    01:15:03.415                : :Chapter 18
    01:20:54.808                : :Chapter 19
    01:23:52.527                : :Chapter 20Свернуть
    Инструкция по скачиванию
     1  Качаем uTorrent версии 2.0 и выше
     2  После установки, жмем выше под постером на ссылку Скачать [MediaGet] или Скачать .torrent
     3  Открываем скачанный файл через соответствующий клиент: MediaGet или uTorrent
     4  Ждем пока подключатся участники
     5  Качаем
    Комментарии о  Агент Джонни Инглиш 3.0 / Johnny English Strikes Again | BDRip 720p 
    Ближайшее в кино
    Вверх