• Игры для PS4
  • Игры для PS3
  • Игры для XBOX360
  • Игры для PC
  • Игры для PS2
  • Игры для PSP
  • Для телефонов
  • Музыка
  • Книги / Журналы
  • Обои
  • Опрос
    Откуда Вы о нас узнали?
      0
    • От знакомых2,1,false,300,full
    • Из социальных сетей2,2,false,300,full
    • Из поисковых систем2,3,false,300,full
    • Другое2,4,false,300,full
    Статистика
    Всего онлайн -
    Гостей -
    Пользователей -
    Короли трекера
    
    Благодарности () Закрыть
    Информация о фильме
    Название: Виновный
    Оригинальное название: Den skyldige / The Guilty
    Год выхода: 2018
    Жанр: Триллер, драма, криминал
    Режиссер: Густав Мёллер
    В ролях: Якоб Седергрен, Джессика Диннаж, Омар Шаргави, Йохан Олсен, Якоб Ульрик Ломанн, Катинка Эверс-Янсен, Жанетт Линдбк, Саймон Беннебьерг, Лаура Бро, Мортен Суурбалле



    О фильме: Диспетчер службы спасения, бывший полицейский Асгер Хольм, принимает звонок от похищенной женщины. Когда связь обрывается, приходит время начать поиски жертвы и похитителя, и каждая прошедшая минута уменьшает шансы на благополучный исход. Однако, вскоре Асгер понимает, что это совсем не обычное похищение…

    Страна: Дания
    Студия: Det Danske Filminstitut, New Danish Screen, Nordisk Film Production
    Продолжительность: 01:25:10
    Перевод: Дублированный | iTunes

    Качество: BDRip 720p
    Видео: MPEG-4 AVC, 1280x536, 5811 Kbit/s, 25 fps
    Звук:
    Аудио #01: 48 kHz, AC3, 5.1, 384 Kbps | iTunes | RUS |[img]http://img11.lostpic.net/2018/08/13/7c2ebc4025c59bfa2d99e99b51a513dc.png[/img]
    Аудио #02: 48 kHz, DTS, 5.1, 1510 Kbps | Оригинал |  DAN |[img]http://img15.lostpic.net/2019/01/10/c56bd4b31eb0f2dc5b33f6a963bb837a.png[/img]
    Субтитры: Английские

    [img]http://img15.lostpic.net/2019/01/10/788fa67ab03c1f8bc9dc06646ec6af48.png[/img][img]http://img15.lostpic.net/2019/01/10/0c65df6a7470df14024f32f5144343f4.png[/img][img]http://img15.lostpic.net/2019/01/10/68a6c1eada42a28fd5a7261e2a9acf7e.png[/img][img]http://img15.lostpic.net/2019/01/10/1f44d84b8c3c0f86e7310a3946b94cdc.png[/img][img]http://img15.lostpic.net/2019/01/10/a78a52478d8a88f5173ee8dcfbd6b5af.png[/img]

    MI
    General
    Unique ID                   : 269137888476111406946968836197088273713 (0xCA7A12655212481B059128132D44A531)
    Complete name               : D:Video111Den.skyldige.2018.BDRip.720p.seleZen.mkv
    Format                      : Matroska
    Format version              : Version 4
    File size                   : 4.58 GiB
    Duration                    : 1 h 25 min
    Overall bit rate            : 7 706 kb/s
    Movie name                  : Den skyldige 2018 from селезень
    Encoded date                : UTC 2019-01-10 06:35:55
    Writing application         : mkvmerge v29.0.0 ("Like It Or Not") 64-bit
    Writing library             : libebml v1.3.6 + libmatroska v1.4.9

    Video
    ID                          : 1
    Format                      : AVC
    Format/Info                 : Advanced Video Codec
    Format profile              : High@L4.1
    Format settings             : CABAC / 12 Ref Frames
    Format settings, CABAC      : Yes
    Format settings, ReFrames   : 12 frames
    Codec ID                    : V_MPEG4/ISO/AVC
    Duration                    : 1 h 25 min
    Bit rate                    : 5 811 kb/s
    Width                       : 1 280 pixels
    Height                      : 536 pixels
    Display aspect ratio        : 2.40:1
    Frame rate mode             : Constant
    Frame rate                  : 25.000 FPS
    Color space                 : YUV
    Chroma subsampling          : 4:2:0
    Bit depth                   : 8 bits
    Scan type                   : Progressive
    Bits/(Pixel*Frame)          : 0.339
    Stream size                 : 3.46 GiB (75%)
    Title                       : NELchrist@HDSky
    Writing library             : x264 core 152 r2851+45 9658d1a 7mod [8-bit@all X86_64]
    Encoding settings           : cabac=1 / ref=12 / deblock=1:-3:-3 / analyse=0x3:0x113 / me=umh / subme=11 / psy=1 / fade_compensate=0.00 / psy_rd=1.00:0.05 / mixed_ref=1 / me_range=32 / chroma_me=1 / trellis=2 / 8x8dct=1 / cqm=0 / deadzone=21,11 / fast_pskip=0 / chroma_qp_offset=-2 / threads=64 / lookahead_threads=4 / sliced_threads=0 / nr=0 / decimate=1 / interlaced=0 / bluray_compat=0 / constrained_intra=0 / fgo=0 / bframes=8 / b_pyramid=2 / b_adapt=2 / b_bias=0 / direct=3 / weightb=1 / open_gop=0 / weightp=2 / keyint=250 / keyint_min=25 / scenecut=40 / intra_refresh=0 / rc=crf / mbtree=0 / crf=13.6000 / qcomp=0.60 / qpmin=0:0:0 / qpmax=69:69:69 / qpstep=4 / ip_ratio=1.40 / pb_ratio=1.30 / aq=4:0.90 / aq-sensitivity=10.00 / aq-factor=1.00:1.00:1.00 / aq2=0 / aq3=0
    Language                    : Dutch
    Default                     : Yes
    Forced                      : No

    Audio #1
    ID                          : 2
    Format                      : AC-3
    Format/Info                 : Audio Coding 3
    Commercial name             : Dolby Digital
    Codec ID                    : A_AC3
    Duration                    : 1 h 24 min
    Bit rate mode               : Constant
    Bit rate                    : 384 kb/s
    Channel(s)                  : 6 channels
    Channel layout              : L R C LFE Ls Rs
    Sampling rate               : 48.0 kHz
    Frame rate                  : 31.250 FPS (1536 SPF)
    Bit depth                   : 16 bits
    Compression mode            : Lossy
    Stream size                 : 233 MiB (5%)
    Title                       : iTunes
    Language                    : Russian
    Service kind                : Complete Main
    Default                     : Yes
    Forced                      : Yes

    Audio #2
    ID                          : 3
    Format                      : DTS
    Format/Info                 : Digital Theater Systems
    Codec ID                    : A_DTS
    Duration                    : 1 h 25 min
    Bit rate mode               : Constant
    Bit rate                    : 1 509 kb/s
    Channel(s)                  : 6 channels
    Channel layout              : C L R Ls Rs LFE
    Sampling rate               : 48.0 kHz
    Frame rate                  : 93.750 FPS (512 SPF)
    Bit depth                   : 24 bits
    Compression mode            : Lossy
    Stream size                 : 919 MiB (20%)
    Title                       : Original
    Language                    : Danish
    Default                     : No
    Forced                      : No

    Text
    ID                          : 4
    Format                      : UTF-8
    Codec ID                    : S_TEXT/UTF8
    Codec ID/Info               : UTF-8 Plain Text
    Duration                    : 1 h 20 min
    Bit rate                    : 51 b/s
    Count of elements           : 1039
    Stream size                 : 30.8 KiB (0%)
    Title                       : Full
    Language                    : English
    Default                     : No
    Forced                      : No

    Menu
    00:00:00.000                : en:00:00:00.000
    00:08:45.680                : en:00:08:45.680
    00:15:07.480                : en:00:15:07.480
    00:25:05.240                : en:00:25:05.240
    00:32:11.520                : en:00:32:11.520
    00:40:12.080                : en:00:40:12.080
    00:45:19.160                : en:00:45:19.160
    00:52:43.200                : en:00:52:43.200
    01:01:19.720                : en:01:01:19.720
    01:07:38.080                : en:01:07:38.080
    01:12:36.320                : en:01:12:36.320
    01:22:06.240                : en:01:22:06.240Свернуть
    Похожие раздачи Искать похожие
    Инструкция по скачиванию
     1  Качаем uTorrent версии 2.0 и выше
     2  После установки, жмем выше под постером на ссылку Скачать [MediaGet] или Скачать .torrent
     3  Открываем скачанный файл через соответствующий клиент: MediaGet или uTorrent
     4  Ждем пока подключатся участники
     5  Качаем
    Комментарии о  Виновный / Den skyldige / The Guilty | BDRip 720p 
    Ближайшее в кино
    Вверх