• Игры для PS4
  • Игры для PS3
  • Игры для XBOX360
  • Игры для PC
  • Игры для PS2
  • Игры для PSP
  • Для телефонов
  • Музыка
  • Книги / Журналы
  • Обои
  • Опрос
    Удобен ли сайт в использовании?
      0
    • Очень удобен, все понятно1,1,false,300,full
    • Удобен1,2,false,300,full
    • Средне1,3,false,300,full
    • Неудобен, трудно ориентироваться1,4,false,300,full
    • Совсем неудобен1,5,false,300,full
    Статистика
    Всего онлайн -
    Гостей -
    Пользователей -
    Короли трекера
    
    Благодарности () Закрыть
    Информация о фильме
    Название: Соседка
    Оригинальное название: The Girl Next Door
    Год выхода: 2004
    Жанр: мелодрама, комедия
    Режиссер: Люк Гринфилд
    В ролях: Эмиль Хирш, Элиша Катберт, Тимоти Олифант, Джеймс Римар, Крис Маркетт, Пол Дано, Тимоти Боттомс, Донна Баллок, Джейкоб Янг, Брайан Колодзей, Брэндон Айронс, Аманда Свистен, Сунг Хай Ли, Улисс Ли, Харрис Ласкэвей, Джули Осборн и др.

    О фильме:
    Старшеклассник Меттью, мечтая о карьере политика, между тем обнаруживает, что у него появилась новая соседка, неотразимая 19-летняя блондинка Дениэль. Цветочно-конфетная стадия пролетает мимолетно, и вот уже ослепленной любовью Меттью уверен, что он нашел женщину всей своей жизни.

    Каково же было его изумление, когда он вместе со всем городом узнаёт, что она — бывшая порнозвезда. И чтобы удержать ее, ему теперь придется рискнуть креслом сенатора и пройти испытание, к которому он не был готов…



    Страна: США
    Продолжительность: 01:49:28
    Перевод: Дублированный, профессиональный многоголосый.

    Файл
    Кодек: h.264
    Качество: BDRip-AVC
    Видео: MPEG-4, 1080x584, 23.976 fps ~2200 kbps
    Звук:
    1) HE-AAC 6 ch, 48 kHz ~224 kbps - Dub [BD EUR]
    2) HE-AAC 2 ch, 48 kHz ~64 kbps - MVO
    3) HE-AAC 2 ch, 48 kHz ~64 kbps - MVO [НТВ+]
    4) HE-AAC 2 ch, 48 kHz ~64 kbps - MVO
    5) HE-AAC 6 ch, 48 kHz ~224 kbps - Original
    Субтитры: Русские, английские

    Media Info:
    Скрытый контент
    General
    Unique ID                   : 135018395512390533765625626381034816716 (0x659398DB494A2A25BD087C1CBAA584CC)
    Format                      : Matroska
    Format version              : Version 4
    File size                   : 2.17 GiB
    Duration                    : 1 h 49 min
    Overall bit rate            : 2 841 kb/s
    Movie name                  : The Girl Next Door (2004) [Unrated] BDRip-AVC от DrVampir
    Encoded date                : UTC 2019-01-09 11:41:33 / UTC 2019-01-08T05:03:10Z
    Writing application         : mkvmerge v30.1.0 ("Forever And More") 64-bit
    Writing library             : libebml v1.3.6 + libmatroska v1.4.9 / Lavf57.7.2
    Cover                       : Yes
    Attachments                 : Cover.jpg

    Video
    ID                          : 1
    Format                      : AVC
    Format/Info                 : Advanced Video Codec
    Format profile              : High@L4.1
    Format settings             : CABAC / 12 Ref Frames
    Format settings, CABAC      : Yes
    Format settings, ReFrames   : 12 frames
    Codec ID                    : V_MPEG4/ISO/AVC
    Duration                    : 1 h 49 min
    Bit rate                    : 2 200 kb/s
    Width                       : 1 080 pixels
    Height                      : 584 pixels
    Display aspect ratio        : 1.85:1
    Frame rate mode             : Constant
    Frame rate                  : 23.976 (24000/1001) FPS
    Color space                 : YUV
    Chroma subsampling          : 4:2:0
    Bit depth                   : 8 bits
    Scan type                   : Progressive
    Bits/(Pixel*Frame)          : 0.145
    Stream size                 : 1.68 GiB (77%)
    Title                       : MPEG-4, 1080x584, 23.976 fps ~2200 kbps
    Writing library             : x264 core 155 r2901 7d0ff22
    Encoding settings           : cabac=1 / ref=12 / deblock=1:-2:-2 / analyse=0x3:0x133 / me=umh / subme=11 / psy=1 / psy_rd=1.00:0.10 / mixed_ref=1 / me_range=56 / chroma_me=1 / trellis=2 / 8x8dct=1 / cqm=0 / deadzone=21,11 / fast_pskip=0 / chroma_qp_offset=-3 / threads=6 / lookahead_threads=1 / sliced_threads=0 / nr=0 / decimate=0 / interlaced=0 / bluray_compat=0 / constrained_intra=0 / bframes=16 / b_pyramid=2 / b_adapt=2 / b_bias=0 / direct=3 / weightb=1 / open_gop=0 / weightp=2 / keyint=240 / keyint_min=24 / scenecut=40 / intra_refresh=0 / rc_lookahead=80 / rc=2pass / mbtree=0 / bitrate=2200 / ratetol=1.0 / qcomp=0.60 / qpmin=0 / qpmax=69 / qpstep=4 / cplxblur=20.0 / qblur=0.5 / vbv_maxrate=62500 / vbv_bufsize=78125 / nal_hrd=none / filler=0 / ip_ratio=1.40 / pb_ratio=1.30 / aq=1:1.00
    Language                    : English
    Default                     : Yes
    Forced                      : No
    Color range                 : Limited
    Color primaries             : BT.709
    Transfer characteristics    : BT.709
    Matrix coefficients         : BT.709

    Audio #1
    ID                          : 2
    Format                      : AAC LC SBR
    Format/Info                 : Advanced Audio Codec Low Complexity with Spectral Band Replication
    Commercial name             : HE-AAC
    Format settings             : Explicit
    Codec ID                    : A_AAC-2
    Duration                    : 1 h 49 min
    Bit rate                    : 224 kb/s
    Channel(s)                  : 6 channels
    Channel layout              : C L R Ls Rs LFE
    Sampling rate               : 48.0 kHz
    Frame rate                  : 23.438 FPS (2048 SPF)
    Compression mode            : Lossy
    Delay relative to video     : 2 ms
    Stream size                 : 175 MiB (8%)
    Title                       : HE-AAC 6 ch, 48 kHz ~224 kbps - Dub [BD EUR]
    Language                    : Russian
    Default                     : Yes
    Forced                      : No

    Audio #2
    ID                          : 3
    Format                      : AAC LC SBR
    Format/Info                 : Advanced Audio Codec Low Complexity with Spectral Band Replication
    Commercial name             : HE-AAC
    Format settings             : Explicit
    Codec ID                    : A_AAC-2
    Duration                    : 1 h 49 min
    Bit rate                    : 64.0 kb/s
    Channel(s)                  : 2 channels
    Channel layout              : L R
    Sampling rate               : 48.0 kHz
    Frame rate                  : 23.438 FPS (2048 SPF)
    Compression mode            : Lossy
    Delay relative to video     : 10 ms
    Stream size                 : 50.1 MiB (2%)
    Title                       : HE-AAC 2 ch, 48 kHz ~64 kbps - MVO
    Language                    : Russian
    Default                     : No
    Forced                      : No

    Audio #3
    ID                          : 4
    Format                      : AAC LC SBR
    Format/Info                 : Advanced Audio Codec Low Complexity with Spectral Band Replication
    Commercial name             : HE-AAC
    Format settings             : Explicit
    Codec ID                    : A_AAC-2
    Duration                    : 1 h 49 min
    Bit rate                    : 64.0 kb/s
    Channel(s)                  : 2 channels
    Channel layout              : L R
    Sampling rate               : 48.0 kHz
    Frame rate                  : 23.438 FPS (2048 SPF)
    Compression mode            : Lossy
    Delay relative to video     : 10 ms
    Stream size                 : 50.1 MiB (2%)
    Title                       : HE-AAC 2 ch, 48 kHz ~64 kbps - MVO [НТВ]
    Language                    : Russian
    Default                     : No
    Forced                      : No

    Audio #4
    ID                          : 5
    Format                      : AAC LC SBR
    Format/Info                 : Advanced Audio Codec Low Complexity with Spectral Band Replication
    Commercial name             : HE-AAC
    Format settings             : Explicit
    Codec ID                    : A_AAC-2
    Duration                    : 1 h 49 min
    Bit rate                    : 64.0 kb/s
    Channel(s)                  : 2 channels
    Channel layout              : L R
    Sampling rate               : 48.0 kHz
    Frame rate                  : 23.438 FPS (2048 SPF)
    Compression mode            : Lossy
    Delay relative to video     : 10 ms
    Stream size                 : 50.1 MiB (2%)
    Title                       : HE-AAC 2 ch, 48 kHz ~64 kbps - MVO
    Language                    : Russian
    Default                     : No
    Forced                      : No

    Audio #5
    ID                          : 6
    Format                      : AAC LC SBR
    Format/Info                 : Advanced Audio Codec Low Complexity with Spectral Band Replication
    Commercial name             : HE-AAC
    Format settings             : Explicit
    Codec ID                    : A_AAC-2
    Duration                    : 1 h 49 min
    Bit rate                    : 224 kb/s
    Channel(s)                  : 6 channels
    Channel layout              : C L R Ls Rs LFE
    Sampling rate               : 48.0 kHz
    Frame rate                  : 23.438 FPS (2048 SPF)
    Compression mode            : Lossy
    Delay relative to video     : 2 ms
    Stream size                 : 175 MiB (8%)
    Title                       : HE-AAC 6 ch, 48 kHz ~224 kbps - Original
    Language                    : English
    Default                     : No
    Forced                      : No

    Text #1
    ID                          : 7
    Format                      : ASS
    Codec ID                    : S_TEXT/ASS
    Codec ID/Info               : Advanced Sub Station Alpha
    Duration                    : 1 h 43 min
    Bit rate                    : 123 b/s
    Count of elements           : 1259
    Compression mode            : Lossless
    Stream size                 : 93.4 KiB (0%)
    Language                    : Russian
    Default                     : No
    Forced                      : No

    Text #2
    ID                          : 8
    Format                      : ASS
    Codec ID                    : S_TEXT/ASS
    Codec ID/Info               : Advanced Sub Station Alpha
    Duration                    : 1 h 43 min
    Bit rate                    : 129 b/s
    Count of elements           : 1308
    Compression mode            : Lossless
    Stream size                 : 97.4 KiB (0%)
    Language                    : Russian
    Default                     : No
    Forced                      : No

    Text #3
    ID                          : 9
    Format                      : ASS
    Codec ID                    : S_TEXT/ASS
    Codec ID/Info               : Advanced Sub Station Alpha
    Duration                    : 1 h 37 min
    Bit rate                    : 1 b/s
    Count of elements           : 12
    Compression mode            : Lossless
    Stream size                 : 930 Bytes (0%)
    Language                    : Russian
    Default                     : No
    Forced                      : No

    Text #4
    ID                          : 10
    Format                      : ASS
    Codec ID                    : S_TEXT/ASS
    Codec ID/Info               : Advanced Sub Station Alpha
    Duration                    : 1 h 43 min
    Bit rate                    : 88 b/s
    Count of elements           : 1193
    Compression mode            : Lossless
    Stream size                 : 66.8 KiB (0%)
    Language                    : English
    Default                     : No
    Forced                      : No

    Menu
    00:00:00.000                : :Chapter 1
    00:03:14.820                : :Chapter 2
    00:04:54.586                : :Chapter 3
    00:07:25.236                : :Chapter 4
    00:10:07.190                : :Chapter 5
    00:15:11.077                : :Chapter 6
    00:21:10.186                : :Chapter 7
    00:25:47.337                : :Chapter 8
    00:29:47.953                : :Chapter 9
    00:34:42.247                : :Chapter 10
    00:38:41.361                : :Chapter 11
    00:45:05.870                : :Chapter 12
    00:49:22.835                : :Chapter 13
    00:55:30.077                : :Chapter 14
    00:58:45.856                : :Chapter 15
    01:00:52.107                : :Chapter 16
    01:05:16.538                : :Chapter 17
    01:08:33.401                : :Chapter 18
    01:11:21.152                : :Chapter 19
    01:15:03.374                : :Chapter 20
    01:18:32.291                : :Chapter 21
    01:20:56.602                : :Chapter 22
    01:23:44.228                : :Chapter 23
    01:27:14.104                : :Chapter 24
    01:33:22.889                : :Chapter 25
    01:35:40.902                : :Chapter 26
    01:40:31.359                : :Chapter 27
    01:43:49.390                : :Chapter 28
    Свернуть


    Похожие раздачи Искать похожие
    Инструкция по скачиванию
     1  Качаем uTorrent версии 2.0 и выше
     2  После установки, жмем выше под постером на ссылку Скачать [MediaGet] или Скачать .torrent
     3  Открываем скачанный файл через соответствующий клиент: MediaGet или uTorrent
     4  Ждем пока подключатся участники
     5  Качаем
    Комментарии о  Соседка / The Girl Next Door | BDRip-AVC 
    Ближайшее в кино
    Вверх