• Игры для PS4
  • Игры для PS3
  • Игры для XBOX360
  • Игры для PC
  • Игры для PS2
  • Игры для PSP
  • Для телефонов
  • Музыка
  • Книги / Журналы
  • Обои
  • Опрос
    Откуда Вы о нас узнали?
      0
    • От знакомых2,1,false,300,full
    • Из социальных сетей2,2,false,300,full
    • Из поисковых систем2,3,false,300,full
    • Другое2,4,false,300,full
    Статистика
    Всего онлайн -
    Гостей -
    Пользователей -
    Короли трекера
    
    Благодарности () Закрыть
    Информация о фильме
    Название: Каратель
    Оригинальное название: The Punisher
    Год выхода: 2004
    Жанр:  Боевик, триллер, криминал
    Режиссер: Джонатан Хенсли / Jonathan Hensleigh
    В ролях: Томас Джейн, Джон Траволта, Ребекка Ромин-Стэмос, Рой Шнайдер, Уилл Пэттон, Лаура Хэрринг

    О фильме:
    Фрэнк Касл - агент ФБР под прикрытием, который после долгих лет службы оперативником должен наконец-то получить кабинетную должность и начать спокойную жизнь со своей женой и детьми. Однако ему предстоит пережить страшное потрясение - во время выполнения последнего спецзадания прямо на его глазах от рук преступника погибает вся его семья. Несмотря на душевную боль, Фрэнк с невероятной решимостью, жестокостью и бесстрашием ищет и карает убийц. Он ведет войну против тех, кто лишил его самого дорогого в жизни. Это - настоящее возмездие…



    Выпущено: США, Германия
    Продолжительность: 02:03:30
    Перевод: Профессиональный (полное дублирование) - Русский

    Файл
    Формат: MKV
    Качество: BDRip-AVC [Blu-ray Disc [EUR]]
    Видео: 1026x436 at 23.976 fps, x264, ~2663 kbps
    Аудио:  48 kHz, AC3, 3/2 (L,C,R,l,r) + LFE ch, ~640.00 kbps
    Субтитры: Русские (Forced), русские (Tycoon), русские, английские

    M/I
    General
    Unique ID                   : 187827178892466172061688116301936286567 (0x8D4E32E5DC09474642B48B87E5655B67)
    Complete name               : Каратель_(2004)_BDRIP-AVC_[-=DoMiNo=-].mkv
    Format                      : Matroska
    Format version              : Version 4
    File size                   : 2.85 GiB
    Duration                    : 2 h 3 min
    Overall bit rate            : 3 305 kb/s
    Movie name                  : Каратель
    Deion                 : Фрэнк Касл - агент ФБР под прикрытием, который после долгих лет службы оперативником должен наконец-то получить кабинетную должность и начать спокойную жизнь со своей женой и детьми. Однако ему предстоит пережить страшное потрясение - во время выполнения последнего спецзадания прямо на его глазах от рук преступника погибает вся его семья. Несмотря на душевную боль, Фрэнк с невероятной решимостью, жестокостью и бесстрашием ищет и карает убийц. Он ведет войну против тех, кто лишил его самого дорогого в жизни. Это - настоящее возмездие...
    Encoded date                : UTC 2019-01-10 08:35:59
    Writing application         : mkvmerge v30.1.0 ("Forever And More") 64-bit
    Writing library             : libebml v1.3.6 + libmatroska v1.4.9
    Attachments                 : poster.jpg
    ACTORS                      : Thomas Jane, John Travolta, Will Patton, Roy Scheider, Laura Harring, Ben Foster, Samantha Mathis, James Carpinello, A. Russell Andrews, Eddie Jemison, John Pinette, Rebecca Romijn, Mark Collie, Marcus Johns, Omar Avila, Russell Durham Comegys, Antoni Corone, Rick Elmhurst, Carleth Keys, Michael Reardon, William Haze, Marco St. John, Bonnie Johnson, Veryl Jones, Jim Meskimen, Jack Swanson, Alan Lilly, Terry Loughlin, Marc Macaulay, Kevin Nash, Tom Nowicki, Sonny Surowiec, Steve Raulerson, Robin O"Dell
    COMPOSER                    : Carlo Siliotto
    COUNTRY                     : Germany, United States
    DATE                        : 2004-04-15
    DIRECTOR                    : Jonathan Hensleigh
    GENRE                       : боевик, криминал, драма
    ITUNEXTC                    : ru-movie|16+|375|
    ORIGINAL_TITLE              : The Punisher
    PRODUCER                    : Avi Arad, Gale Anne Hurd
    PUBLISHER                   : Lions Gate Films, VIP 3 Medienfonds, Valhalla Motion Pictures, Marvel Enterprises, VIP 2 Medienfonds
    RATING                      : 6.65

    Video
    ID                          : 1
    Format                      : AVC
    Format/Info                 : Advanced Video Codec
    Format profile              : High@L4.1
    Format settings             : CABAC / 16 Ref Frames
    Format settings, CABAC      : Yes
    Format settings, ReFrames   : 16 frames
    Codec ID                    : V_MPEG4/ISO/AVC
    Duration                    : 2 h 3 min
    Bit rate                    : 2 663 kb/s
    Width                       : 1 026 pixels
    Height                      : 436 pixels
    Display aspect ratio        : 2.35:1
    Frame rate mode             : Constant
    Frame rate                  : 23.976 (24000/1001) FPS
    Color space                 : YUV
    Chroma subsampling          : 4:2:0
    Bit depth                   : 8 bits
    Scan type                   : Progressive
    Bits/(Pixel*Frame)          : 0.248
    Stream size                 : 2.30 GiB (81%)
    Title                       : RIP_BY_-=DoMiNo=-
    Writing library             : x264 core 157 r2935 545de2f
    Encoding settings           : cabac=1 / ref=16 / deblock=1:-2:-2 / analyse=0x3:0x133 / me=umh / subme=11 / psy=1 / psy_rd=1.08:0.00 / mixed_ref=1 / me_range=48 / chroma_me=1 / trellis=2 / 8x8dct=1 / cqm=0 / deadzone=21,11 / fast_pskip=1 / chroma_qp_offset=-2 / threads=6 / lookahead_threads=1 / sliced_threads=0 / nr=0 / decimate=1 / interlaced=0 / bluray_compat=0 / constrained_intra=0 / bframes=16 / b_pyramid=2 / b_adapt=2 / b_bias=0 / direct=1 / weightb=1 / open_gop=0 / weightp=2 / keyint=250 / keyint_min=24 / scenecut=40 / intra_refresh=0 / rc=crf / mbtree=0 / crf=18.0 / qcomp=0.70 / qpmin=16 / qpmax=69 / qpstep=4 / ip_ratio=1.40 / pb_ratio=1.30 / aq=1:0.90
    Language                    : English
    Default                     : Yes
    Forced                      : No
    Color range                 : Limited
    Color primaries             : BT.709
    Transfer characteristics    : BT.709
    Matrix coefficients         : BT.709

    Audio
    ID                          : 2
    Format                      : AC-3
    Format/Info                 : Audio Coding 3
    Commercial name             : Dolby Digital
    Codec ID                    : A_AC3
    Duration                    : 2 h 3 min
    Bit rate mode               : Constant
    Bit rate                    : 640 kb/s
    Channel(s)                  : 6 channels
    Channel layout              : L R C LFE Ls Rs
    Sampling rate               : 48.0 kHz
    Frame rate                  : 31.250 FPS (1536 SPF)
    Bit depth                   : 16 bits
    Compression mode            : Lossy
    Stream size                 : 565 MiB (19%)
    Title                       : Дубляж, Blu-Ray CEE
    Language                    : Russian
    Service kind                : Complete Main
    Default                     : Yes
    Forced                      : No

    Text #1
    ID                          : 3
    Format                      : UTF-8
    Codec ID                    : S_TEXT/UTF8
    Codec ID/Info               : UTF-8 Plain Text
    Duration                    : 1 h 6 min
    Bit rate                    : 0 b/s
    Count of elements           : 11
    Stream size                 : 425 Bytes (0%)
    Title                       : RUS_[Forced]
    Language                    : Russian
    Default                     : Yes
    Forced                      : Yes

    Text #2
    ID                          : 4
    Format                      : UTF-8
    Codec ID                    : S_TEXT/UTF8
    Codec ID/Info               : UTF-8 Plain Text
    Duration                    : 1 h 53 min
    Bit rate                    : 59 b/s
    Count of elements           : 944
    Stream size                 : 49.9 KiB (0%)
    Title                       : RUS_[Tycoon]
    Language                    : Russian
    Default                     : No
    Forced                      : No

    Text #3
    ID                          : 5
    Format                      : UTF-8
    Codec ID                    : S_TEXT/UTF8
    Codec ID/Info               : UTF-8 Plain Text
    Duration                    : 1 h 54 min
    Bit rate                    : 55 b/s
    Count of elements           : 892
    Stream size                 : 46.2 KiB (0%)
    Title                       : RUS
    Language                    : Russian
    Default                     : No
    Forced                      : No

    Text #4
    ID                          : 6
    Format                      : UTF-8
    Codec ID                    : S_TEXT/UTF8
    Codec ID/Info               : UTF-8 Plain Text
    Duration                    : 1 h 53 min
    Bit rate                    : 33 b/s
    Count of elements           : 879
    Stream size                 : 27.7 KiB (0%)
    Title                       : ENG
    Language                    : English
    Default                     : No
    Forced                      : No

    Menu
    00:00:00.000                : en:Chapter 1
    00:07:06.926                : en:Chapter 2
    00:14:57.438                : en:Chapter 3
    00:22:23.925                : en:Chapter 4
    00:31:55.330                : en:Chapter 5
    00:38:29.557                : en:Chapter 6
    00:46:16.273                : en:Chapter 7
    00:54:10.872                : en:Chapter 8
    01:01:19.676                : en:Chapter 9
    01:08:20.304                : en:Chapter 10
    01:15:16.220                : en:Chapter 11
    01:22:47.379                : en:Chapter 12
    01:35:01.487                : en:Chapter 13
    01:40:39.366                : en:Chapter 14
    01:48:43.725                : en:Chapter 15
    01:55:42.936                : en:Chapter 16Свернуть


    Скриншоты
    [screen]http://img15.lostpic.net/2019/01/10/d55f6cdae06496c20e91c253dca5106b.png[/screen][screen]http://img15.lostpic.net/2019/01/10/0133d0f5fa9f7e2a120e78cbc3e60baf.png[/screen][screen]http://img15.lostpic.net/2019/01/10/336937b95f97cd9bffd0b1f78b1a146d.png[/screen][screen]http://img15.lostpic.net/2019/01/10/1d01dc74cdb22859a20656aae974859e.png[/screen][screen]http://img15.lostpic.net/2019/01/10/5723aa6dbbc45badec68be98ee3bd866.png[/screen][screen]http://img15.lostpic.net/2019/01/10/77219f9ffbfbe02a77760b562f0d5eb7.png[/screen][screen]http://img15.lostpic.net/2019/01/10/0421c7ccfe51c6abf5ef0e042c7f1d1d.png[/screen][screen]http://img15.lostpic.net/2019/01/10/9cbea496356d882350d65cecb1a5bafc.png[/screen][screen]http://img15.lostpic.net/2019/01/10/d23fd4be76fe00ad8f2a249736b93134.png[/screen][screen]http://img15.lostpic.net/2019/01/10/207d639db4bc1b73041a718ceae1eb9d.png[/screen][screen]http://img15.lostpic.net/2019/01/10/948e4127399527b26de054d5a377025a.png[/screen][screen]http://img15.lostpic.net/2019/01/10/03a08398b9fbf9aee178f26fb418333d.png[/screen][screen]http://img15.lostpic.net/2019/01/10/dacb897df3b0dbfbc45da58eaa10afa2.png[/screen][screen]http://img15.lostpic.net/2019/01/10/3b14c785e83cf6dc846bed02c35e57a2.png[/screen][screen]http://img15.lostpic.net/2019/01/10/539b634c92707ab96ec2cdb6d5d87bce.png[/screen][screen]http://img15.lostpic.net/2019/01/10/d8cbe128e200401e15597bac18d805ed.png[/screen][screen]http://img15.lostpic.net/2019/01/10/2bf7f8883b1d05d7443754a14a29e51f.png[/screen]Свернуть
    Похожие раздачи Искать похожие
    Инструкция по скачиванию
     1  Качаем uTorrent версии 2.0 и выше
     2  После установки, жмем выше под постером на ссылку Скачать [MediaGet] или Скачать .torrent
     3  Открываем скачанный файл через соответствующий клиент: MediaGet или uTorrent
     4  Ждем пока подключатся участники
     5  Качаем
    Комментарии о  Каратель / The Punisher | BDRip-AVC 
    Ближайшее в кино
    Вверх