• Игры для PS4
  • Игры для PS3
  • Игры для XBOX360
  • Игры для PC
  • Игры для PS2
  • Игры для PSP
  • Для телефонов
  • Музыка
  • Книги / Журналы
  • Обои
  • Опрос
    Удобен ли сайт в использовании?
      0
    • Очень удобен, все понятно1,1,false,300,full
    • Удобен1,2,false,300,full
    • Средне1,3,false,300,full
    • Неудобен, трудно ориентироваться1,4,false,300,full
    • Совсем неудобен1,5,false,300,full
    Статистика
    Всего онлайн -
    Гостей -
    Пользователей -
    Короли трекера
    
    Благодарности () Закрыть
    Название: Грязный Джон
    Оригинальное название: Dirty John
    Год выпуска: 2018
    Жанр:  Драма
    Выпущено: США, Atlas Entertainment, LA Times Studios, Universal Cable Productions
    Режиссер: Джеффри Рейнер
    В ролях: Эрик Бана, Конни Бриттон, Джулия Гарнер, Джуно Темпл, Александр Гомес, Джейк Эйбел, Ванесса Мартинес, Брент Андерсон, Оливия Грэйс Эпплгейт, Фил Остин

    О фильме: Жизнь Дебры полностью меняется, когда у неё начинается роман с врачом по имени Джон. Со временем Дебра понимает, что оказалась вовлечена в зловещую игру психологических манипуляций, а её новый бойфренд — не тот, за кого себя выдаёт.

    [img]https://u.myshows.me/r/58949.png[/img]

    Техданные
    Качество: WEBRip (1080p)
    Видео: MPEG-4 AVC, ~ 8596 Kbps, 1920x1080, 23.976 FPS
    Аудио: AAC, 6 ch, 637 Кбит/с
    Продолжительность: 6 x ~ 00:50:00
    Перевод: Любительский двухголосый закадровый (LakeFilms)
    Присутствует реклама!



    MI
    General
    Unique ID                   : 196508423755814204166455102589787740878 (0x93D62550C2D45421F30328EEC1009ACE)
    Complete name               : D:сериал грязныйDirty.John.S01.1080p.WEBRip.LakeFilmsDirty.John.S01E01.Approachable.Dreams.1080p.WEBRip.LakeFilms.mkv
    Format                      : Matroska
    Format version              : Version 4
    File size                   : 3.25 GiB
    Duration                    : 50 min 22 s
    Overall bit rate            : 9 236 kb/s
    Encoded date                : UTC 2019-01-08 19:45:20
    Writing application         : mkvmerge v29.0.0 ("Like It Or Not") 64-bit
    Writing library             : libebml v1.3.6 + libmatroska v1.4.9

    Video
    ID                          : 1
    Format                      : AVC
    Format/Info                 : Advanced Video Codec
    Format profile              : Main@L4.1
    Format settings             : CABAC / 4 Ref Frames
    Format settings, CABAC      : Yes
    Format settings, ReFrames   : 4 frames
    Codec ID                    : V_MPEG4/ISO/AVC
    Duration                    : 50 min 22 s
    Bit rate                    : 8 596 kb/s
    Width                       : 1 920 pixels
    Height                      : 1 080 pixels
    Display aspect ratio        : 16:9
    Frame rate mode             : Constant
    Frame rate                  : 23.976 (24000/1001) FPS
    Color space                 : YUV
    Chroma subsampling          : 4:2:0
    Bit depth                   : 8 bits
    Scan type                   : Progressive
    Bits/(Pixel*Frame)          : 0.173
    Stream size                 : 3.02 GiB (93%)
    Language                    : English
    Default                     : Yes
    Forced                      : No
    Color range                 : Limited
    Color primaries             : BT.709
    Transfer characteristics    : BT.709
    Matrix coefficients         : BT.709

    Audio
    ID                          : 2
    Format                      : AAC LC
    Format/Info                 : Advanced Audio Codec Low Complexity
    Codec ID                    : A_AAC-2
    Duration                    : 50 min 22 s
    Bit rate                    : 637 kb/s
    Channel(s)                  : 6 channels
    Channel layout              : C L R Ls Rs LFE
    Sampling rate               : 48.0 kHz
    Frame rate                  : 46.875 FPS (1024 SPF)
    Compression mode            : Lossy
    Stream size                 : 230 MiB (7%)
    Language                    : English
    Default                     : Yes
    Forced                      : No
    Свернуть
    Инструкция по скачиванию
     1  Качаем uTorrent версии 2.0 и выше
     2  После установки, жмем выше под постером на ссылку Скачать [MediaGet] или Скачать .torrent
     3  Открываем скачанный файл через соответствующий клиент: MediaGet или uTorrent
     4  Ждем пока подключатся участники
     5  Качаем
    Комментарии о  Грязный Джон / Dirty John [Сезон 01 | 01-06 серии из 08] | WEBRip 1080p 
    Ближайшее в кино
    Вверх