• Игры для PS4
  • Игры для PS3
  • Игры для XBOX360
  • Игры для PC
  • Игры для PS2
  • Игры для PSP
  • Для телефонов
  • Музыка
  • Книги / Журналы
  • Обои
  • Опрос
    Удобен ли сайт в использовании?
      0
    • Очень удобен, все понятно1,1,false,300,full
    • Удобен1,2,false,300,full
    • Средне1,3,false,300,full
    • Неудобен, трудно ориентироваться1,4,false,300,full
    • Совсем неудобен1,5,false,300,full
    Статистика
    Всего онлайн -
    Гостей -
    Пользователей -
    Короли трекера
    
    Благодарности () Закрыть
    Информация о фильме
    Название: Армейский пирог
    Оригинальное название: Achtung, fertig, Charlie!
    Год выхода: 2003
    Жанр: мелодрама, комедия
    Режиссер: Майк Эшманн
    В ролях: Майкл Кох, Мелани Винигер, Мириам Эгертер, Марко Рима, Мартин Рапольд, Макс Рюдлингер, Николас Стейнер, Кая Инан, Марио Альмер, Майк Мюллер

    О фильме:
    Воинский долг — превыше всего. Это и пришлось испытать красавцу Антонио в самый главный день своей жизни, когда он повел к алтарю девушку своей мечты. В тот самый момент появились посланцы Министерства Обороны и под конвоем доставили беднягу-жениха прямо во фраке на призывной пункт. Капитан довольно потирает руки и злорадствует в предвкушении «больших маневров». А выжить помогут только боевые товарищи, среди которых убежденный пацифист, симпатичный гей, удачливый плейбой, великий экспериментатор в области травок, таблеток и прочей дурманящей ерунды, среди объектов желания которых — не только женщины, но и обогревательные приборы. Ну и, конечно, очаровательные сослуживицы, добровольно вставшие «под ружье», но вместо оружия получившие почетное право дуть в тромбон на утренних построениях. Все попытки незадачливого жениха соединиться с возлюбленной неизменно завершаются гауптвахтой. Единственный способ быть отчисленным из учебки — соблазнить дочку командира Мишель, но коварный план дает сбой…



    Страна: Швейцария
    Студия: Zodiac Pictures International Ltd.
    Продолжительность: 01:31:36
    Перевод: Дублированный

    Файл
    Кодек: H.264
    Качество: BDRip 720p
    Видео: AVC, 1280x694 (16:9), 23.976 fps ~ 6990 Kbps
    Звук:
    AC3, 48 KHz, 6 ch ~ 448 Kb/s (русский)
    AC3, 48 KHz, 2 ch ~ 192 Kb/s (украинский)
    DTS, 48 KHz, 6 ch ~ 1510 Kb/s (немецкий)
    Субтитры: русские, английские, французские

    MI

    Общее
    Уникальный идентификатор : 246196750060042480750389966666344380414 (0xB937C4F1D65E979BB5F7C4860AAB37FE)
    Полное имя : Q:TorFАрмейский пирог - Achtung, fertig, Charlie! (2003).mkv
    Формат : Matroska
    Версия формата : Version 2
    Размер файла : 5,97 Гбайт
    Продолжительность : 1 ч. 31 м.
    Общий поток : 9327 Кбит/сек
    Название фильма : Achtung, fertig, Charlie! (2003) - Release for HDCLUB
    Дата кодирования : UTC 2014-03-12 19:41:51
    Программа кодирования : mkvmerge v5.7.0 ("The Whirlwind") built on Jul 8 2012 20:08:51
    Библиотека кодирования : libebml v1.2.3 + libmatroska v1.3.0

    Видео
    Идентификатор : 1
    Формат : AVC
    Формат/Информация : Advanced Video Codec
    Профиль формата : High@L4.1
    Параметр CABAC формата : Да
    Параметр ReFrames формата : 9 кадров
    Идентификатор кодека : V_MPEG4/ISO/AVC
    Продолжительность : 1 ч. 31 м.
    Битрейт : 6992 Кбит/сек
    Ширина : 1280 пикселей
    Высота : 694 пикселя
    Соотношение сторон : 16:9
    Частота кадров : 23,976 кадра/сек
    Цветовое пространство : YUV
    Субдискретизация насыщенности : 4:2:0
    Битовая глубина : 8 бит
    Тип развёртки : Прогрессивная
    Бит/(Пиксели*Кадры) : 0.328
    Размер потока : 4,47 Гбайт (75%)
    Библиотека кодирования : x264 core 125 r2200 999b753
    Настройки программы : cabac=1 / ref=9 / deblock=1:-3:-3 / analyse=0x3:0x133 / me=umh / subme=11 / psy=1 / psy_rd=1.05:0.00 / mixed_ref=1 / me_range=48 / chroma_me=1 / trellis=2 / 8x8dct=1 / cqm=0 / deadzone=21,11 / fast_pskip=0 / chroma_qp_offset=-2 / threads=12 / lookahead_threads=2 / sliced_threads=0 / nr=0 / decimate=1 / interlaced=0 / bluray_compat=0 / constrained_intra=0 / bframes=9 / b_pyramid=2 / b_adapt=2 / b_bias=0 / direct=3 / weightb=1 / open_gop=0 / weightp=2 / keyint=250 / keyint_min=23 / scenecut=40 / intra_refresh=0 / rc_lookahead=40 / rc=crf / mbtree=0 / crf=16.6 / qcomp=0.60 / qpmin=0 / qpmax=69 / qpstep=4 / vbv_maxrate=62500 / vbv_bufsize=78125 / crf_max=0.0 / nal_hrd=none / ip_ratio=1.40 / pb_ratio=1.30 / aq=1:0.80
    Язык : German
    Default : Да
    Forced : Нет

    Аудио #1
    Идентификатор : 2
    Формат : AC-3
    Формат/Информация : Audio Coding 3
    Расширение режима : CM (complete main)
    Идентификатор кодека : A_AC3
    Продолжительность : 1 ч. 31 м.
    Вид битрейта : Постоянный
    Битрейт : 448 Кбит/сек
    Каналы : 6 каналов
    Расположение каналов : Front: L C R, Side: L R, LFE
    Частота : 48,0 КГц
    Битовая глубина : 16 бит
    Метод сжатия : С потерями
    Размер потока : 294 Мбайт (5%)
    Заголовок : |Дубляж, R5|
    Язык : Russian
    Default : Да
    Forced : Нет

    Аудио #2
    Идентификатор : 3
    Формат : AC-3
    Формат/Информация : Audio Coding 3
    Расширение режима : CM (complete main)
    Идентификатор кодека : A_AC3
    Продолжительность : 1 ч. 31 м.
    Вид битрейта : Постоянный
    Битрейт : 192 Кбит/сек
    Каналы : 2 канала
    Расположение каналов : Front: L R
    Частота : 48,0 КГц
    Битовая глубина : 16 бит
    Метод сжатия : С потерями
    Размер потока : 126 Мбайт (2%)
    Заголовок : |Двухголосый закадровый|
    Язык : Ukrainian
    Default : Нет
    Forced : Нет

    Аудио #3
    Идентификатор : 4
    Формат : DTS
    Формат/Информация : Digital Theater Systems
    Идентификатор кодека : A_DTS
    Продолжительность : 1 ч. 31 м.
    Вид битрейта : Постоянный
    Битрейт : 1510 Кбит/сек
    Каналы : 6 каналов
    Расположение каналов : Front: L C R, Side: L R, LFE
    Частота : 48,0 КГц
    Битовая глубина : 24 бит
    Метод сжатия : С потерями
    Размер потока : 989 Мбайт (16%)
    Язык : German
    Default : Нет
    Forced : Нет

    Текст #1
    Идентификатор : 5
    Формат : UTF-8
    Идентификатор кодека : S_TEXT/UTF8
    Идентификатор кодека/Информация : UTF-8 Plain Text
    Язык : Russian
    Default : Нет
    Forced : Нет

    Текст #2
    Идентификатор : 6
    Формат : UTF-8
    Идентификатор кодека : S_TEXT/UTF8
    Идентификатор кодека/Информация : UTF-8 Plain Text
    Язык : English
    Default : Нет
    Forced : Нет

    Текст #3
    Идентификатор : 7
    Формат : UTF-8
    Идентификатор кодека : S_TEXT/UTF8
    Идентификатор кодека/Информация : UTF-8 Plain Text
    Язык : French
    Default : Нет
    Forced : Нет

    Меню
    00:00:00.000 : :00:00:00.000
    00:09:23.980 : :00:09:23.980
    00:19:24.997 : :00:19:24.997
    00:29:22.218 : :00:29:22.218
    00:41:01.417 : :00:41:01.417
    00:49:24.211 : :00:49:24.211
    00:58:58.618 : :00:58:58.618
    01:08:06.874 : :01:08:06.874
    01:21:51.615 : :01:21:51.615
    01:28:19.752 : :01:28:19.752
    Свернуть


    Скриншоты
    [screen]https://i106.fastpic.ru/big/2019/0110/e3/4ceb22ee35edff7fb131ba6e782e07e3.jpg[/screen][screen]https://i106.fastpic.ru/big/2019/0110/79/220a8fb2575ee2874b5bbe28fab35579.jpg[/screen][screen]https://i106.fastpic.ru/big/2019/0110/3a/a31ebf57686c56b66a205cbb11fc923a.jpg[/screen][screen]https://i106.fastpic.ru/big/2019/0110/0b/b23fca8cad3aa9d94a42acbd368cb80b.jpg[/screen][screen]https://i106.fastpic.ru/big/2019/0110/06/c386a004853e0a772727196e469efa06.jpg[/screen][screen]https://i106.fastpic.ru/big/2019/0110/48/0075a8d2e0eeedfd6212fd9529002348.jpg[/screen][screen]https://i106.fastpic.ru/big/2019/0110/2f/df95d0d95bd54c29b849c8723df4512f.jpg[/screen]  Свернуть
    Похожие раздачи Искать похожие
    Инструкция по скачиванию
     1  Качаем uTorrent версии 2.0 и выше
     2  После установки, жмем выше под постером на ссылку Скачать [MediaGet] или Скачать .torrent
     3  Открываем скачанный файл через соответствующий клиент: MediaGet или uTorrent
     4  Ждем пока подключатся участники
     5  Качаем
    Комментарии о  Армейский пирог / Achtung, fertig, Charlie! | BDRip 720p 
    Ближайшее в кино
    Вверх