• Игры для PS4
  • Игры для PS3
  • Игры для XBOX360
  • Игры для PC
  • Игры для PS2
  • Игры для PSP
  • Для телефонов
  • Музыка
  • Книги / Журналы
  • Обои
  • Опрос
    Откуда Вы о нас узнали?
      0
    • От знакомых2,1,false,300,full
    • Из социальных сетей2,2,false,300,full
    • Из поисковых систем2,3,false,300,full
    • Другое2,4,false,300,full
    Статистика
    Всего онлайн -
    Гостей -
    Пользователей -
    Короли трекера
    
    Благодарности () Закрыть
    Информация о фильме
    Название: Красивый мальчик
    Оригинальное название: Beautiful Boy

    Год выхода: 2018
    Жанр: Драма, биография
    Режиссер: Феликс ван Грунинген
    В ролях: Стив Карелл, Тимоти Шаламе, Мора Тирни, Кристиан Конвери, Окли Булл, Кейтлин Дивер, Эми Райан, Стефани Скотт, Джулиан Уоркс, Ке Лоуренс
    О фильме:
    Дэвид Шефф переживает трагедию: его милый и очаровательный сын Ник стал наркоманом. Откуда взялась пагубная привычка? Ник растёт в любящей семье, он отлично учится, ни в чём не нуждается. Развод родителей прошёл спокойно. С матерью, живущей в Лос-Анджелесе, Ник общается до сих пор. Пытаясь найти ответы, Дэвид вспоминает, каким ребёнок был раньше - вдумчивым и красивым мальчиком.



    Страна: США, Amazon Studios, Big Indie Pictures, Plan B Entertainment
    Продолжительность: 02:00:44
    Перевод: Любительский (двухголосый закадровый) | HiWay Grope

    Файл
    Кодек: XviD
    Качество: WEBRip
    Видео: 720x384, 23.976 fps, ~1802 kbps, 0.27 bit/pixel
    Звук:
    Аудио rus: AC3, 48 kHz, 2 ch, 192 Kbps
    Субтитры: отсутствуют

    Реклама: присутствует

    Семпл

    MediaInfo

    General
    Complete name                            : D:Beautiful.Boy.2018.WEBRip.HiWayGropeBeautiful.Boy.2018.WEB-DLRip.HiWayGrope.avi
    Format                                   : AVI
    Format/Info                              : Audio Video Interleave
    Format profile                           : OpenDML
    File size                                : 1.69 GiB
    Duration                                 : 2 h 0 min
    Overall bit rate                         : 2 002 kb/s
    Writing application                      : Lavf57.71.100

    Video
    ID                                       : 0
    Format                                   : MPEG-4 Visual
    Format profile                           : Advanced Simple@L5
    Format settings, BVOP                    : No
    Format settings, QPel                    : No
    Format settings, GMC                     : No warppoints
    Format settings, Matrix                  : Default (H.263)
    Codec ID                                 : XVID
    Codec ID/Hint                            : XviD
    Duration                                 : 2 h 0 min
    Bit rate                                 : 1 798 kb/s
    Width                                    : 720 pixels
    Height                                   : 384 pixels
    Display aspect ratio                     : 1.85:1
    Frame rate                               : 23.976 (24000/1001) FPS
    Color space                              : YUV
    Chroma subsampling                       : 4:2:0
    Bit depth                                : 8 bits
    Scan type                                : Progressive
    Compression mode                         : Lossy
    Bits/(Pixel*Frame)                       : 0.271
    Stream size                              : 1.52 GiB (90%)
    Writing library                          : XviD 67

    Audio
    ID                                       : 1
    Format                                   : AC-3
    Format/Info                              : Audio Coding 3
    Commercial name                          : Dolby Digital
    Codec ID                                 : 2000
    Duration                                 : 2 h 0 min
    Bit rate mode                            : Constant
    Bit rate                                 : 192 kb/s
    Channel(s)                               : 2 channels
    Channel layout                           : L R
    Sampling rate                            : 48.0 kHz
    Frame rate                               : 31.250 FPS (1536 SPF)
    Bit depth                                : 16 bits
    Compression mode                         : Lossy
    Stream size                              : 166 MiB (10%)
    Alignment                                : Aligned on interleaves
    Interleave, duration                     : 32  ms (0.77 video frame)
    Service kind                             : Complete Main

    Свернуть


    Похожие раздачи Искать похожие
    Инструкция по скачиванию
     1  Качаем uTorrent версии 2.0 и выше
     2  После установки, жмем выше под постером на ссылку Скачать [MediaGet] или Скачать .torrent
     3  Открываем скачанный файл через соответствующий клиент: MediaGet или uTorrent
     4  Ждем пока подключатся участники
     5  Качаем
    Комментарии о  Красивый мальчик / Beautiful Boy | WEBRip 
    Ближайшее в кино
    Вверх