• Игры для PS4
  • Игры для PS3
  • Игры для XBOX360
  • Игры для PC
  • Игры для PS2
  • Игры для PSP
  • Для телефонов
  • Музыка
  • Книги / Журналы
  • Обои
  • Опрос
    Откуда Вы о нас узнали?
      0
    • От знакомых2,1,false,300,full
    • Из социальных сетей2,2,false,300,full
    • Из поисковых систем2,3,false,300,full
    • Другое2,4,false,300,full
    Статистика
    Всего онлайн -
    Гостей -
    Пользователей -
    Короли трекера
    
    Благодарности () Закрыть
    Информация о фильме
    Название: Центральный парк
    Оригинальное название: Central Park

    Год выхода: 2017
    Жанр: Ужасы, триллер
    Режиссер: Джастин Рейнсилбер
    В ролях: Грэйс Ван Паттен, Руби Модин, Марина Скверчати, Майк Ломбарди, Дэвид Валчин, Джордин ДиНаталь, Сара Меццанотте, Николь Балсам, Аарон Роман Уэйнер
    О фильме:
    Устав от школьной рутины шестеро лучших друзей отправляются ночью потусить в Центральном парке Нью-Йорка. Они и не подозревают, что в одном из самых тихих мест города их поджидает маньяк-психопат.



    Страна: США, Feast and Bourbon Films
    Продолжительность: 01:27:48
    Перевод: Любительский (двухголосый закадровый) | HiWay Grope

    Файл
    Кодек: XviD
    Качество: WEBRip
    Видео: 720x304, 23.976 fps, ~1787 kbps, 0.34 bit/pixel
    Звук:
    Аудио rus: AC3, 48 kHz, 2 ch, 192 Kbps
    Субтитры: отсутствуют

    Реклама: присутствует

    Семпл

    MediaInfo

    General
    Complete name                            : D:Central.Park.2017.WEB-DLRip.HiWayGropeCentral.Park.2017.WEB-DLRip.HiWayGrope.avi
    Format                                   : AVI
    Format/Info                              : Audio Video Interleave
    Format profile                           : OpenDML
    File size                                : 1.22 GiB
    Duration                                 : 1 h 27 min
    Overall bit rate                         : 1 987 kb/s
    Writing application                      : Lavf57.71.100

    Video
    ID                                       : 0
    Format                                   : MPEG-4 Visual
    Format profile                           : Advanced Simple@L5
    Format settings, BVOP                    : No
    Format settings, QPel                    : No
    Format settings, GMC                     : No warppoints
    Format settings, Matrix                  : Default (H.263)
    Codec ID                                 : XVID
    Codec ID/Hint                            : XviD
    Duration                                 : 1 h 27 min
    Bit rate                                 : 1 782 kb/s
    Width                                    : 720 pixels
    Height                                   : 304 pixels
    Display aspect ratio                     : 2.40:1
    Frame rate                               : 23.976 (24000/1001) FPS
    Color space                              : YUV
    Chroma subsampling                       : 4:2:0
    Bit depth                                : 8 bits
    Scan type                                : Progressive
    Compression mode                         : Lossy
    Bits/(Pixel*Frame)                       : 0.339
    Stream size                              : 1.09 GiB (90%)
    Writing library                          : XviD 67

    Audio
    ID                                       : 1
    Format                                   : AC-3
    Format/Info                              : Audio Coding 3
    Commercial name                          : Dolby Digital
    Codec ID                                 : 2000
    Duration                                 : 1 h 27 min
    Bit rate mode                            : Constant
    Bit rate                                 : 192 kb/s
    Channel(s)                               : 2 channels
    Channel layout                           : L R
    Sampling rate                            : 48.0 kHz
    Frame rate                               : 31.250 FPS (1536 SPF)
    Bit depth                                : 16 bits
    Compression mode                         : Lossy
    Stream size                              : 121 MiB (10%)
    Alignment                                : Aligned on interleaves
    Interleave, duration                     : 32  ms (0.77 video frame)
    Service kind                             : Complete Main

    Свернуть


    Похожие раздачи Искать похожие
    Инструкция по скачиванию
     1  Качаем uTorrent версии 2.0 и выше
     2  После установки, жмем выше под постером на ссылку Скачать [MediaGet] или Скачать .torrent
     3  Открываем скачанный файл через соответствующий клиент: MediaGet или uTorrent
     4  Ждем пока подключатся участники
     5  Качаем
    Комментарии о  Центральный парк / Central Park | WEBRip 
    Ближайшее в кино
    Вверх