• Игры для PS4
  • Игры для PS3
  • Игры для XBOX360
  • Игры для PC
  • Игры для PS2
  • Игры для PSP
  • Для телефонов
  • Музыка
  • Книги / Журналы
  • Обои
  • Опрос
    Откуда Вы о нас узнали?
      0
    • От знакомых2,1,false,300,full
    • Из социальных сетей2,2,false,300,full
    • Из поисковых систем2,3,false,300,full
    • Другое2,4,false,300,full
    Статистика
    Всего онлайн -
    Гостей -
    Пользователей -
    Короли трекера
    
    Благодарности () Закрыть
    Информация о фильме
    Название: Центральный парк
    Оригинальное название: Central Park

    Год выхода: 2017
    Жанр: Ужасы, триллер
    Режиссер: Джастин Рейнсилбер
    В ролях: Грэйс Ван Паттен, Руби Модин, Марина Скверчати, Майк Ломбарди, Дэвид Валчин, Джордин ДиНаталь, Сара Меццанотте, Николь Балсам, Аарон Роман Уэйнер
    О фильме:
    Устав от школьной рутины шестеро лучших друзей отправляются ночью потусить в Центральном парке Нью-Йорка. Они и не подозревают, что в одном из самых тихих мест города их поджидает маньяк-психопат.



    Страна: США, Feast and Bourbon Films
    Продолжительность: 01:27:48
    Перевод: Любительский (двухголосый закадровый) | HiWay Grope

    Файл
    Кодек: MPEG-4 AVC/x.264
    Качество: WEBRip 720p
    Видео: 1280x528, 23.976 fps, ~2881 kbps, 0.178 bit/pixel
    Звук:
    Аудио rus: AC3, 48 kHz, 2 ch, 192 Kbps
    Субтитры: отсутствуют

    Реклама: присутствует

    Семпл

    MediaInfo

    General
    Unique ID                                : 160194908141049524946844918988731997856 (0x78846AC3F795588FBDDEB3B2D3625EA0)
    Complete name                            : D:Central.Park.2017.720p.WEB-DLRip.HiWayGropeCentral.Park.2017.720p.WEB-DLRip.HiWayGrope.mkv
    Format                                   : Matroska
    Format version                           : Version 4
    File size                                : 1.89 GiB
    Duration                                 : 1 h 27 min
    Overall bit rate mode                    : Variable
    Overall bit rate                         : 3 075 kb/s
    Encoded date                             : UTC 2019-01-10 04:45:47
    Writing application                      : mkvmerge v25.0.0 ("Prog Noir") 64-bit
    Writing library                          : libebml v1.3.6 + libmatroska v1.4.9

    Video
    ID                                       : 1
    Format                                   : AVC
    Format/Info                              : Advanced Video Codec
    Format profile                           : High@L5
    Format settings                          : CABAC / 4 Ref Frames
    Format settings, CABAC                   : Yes
    Format settings, RefFrames               : 4 frames
    Codec ID                                 : V_MPEG4/ISO/AVC
    Duration                                 : 1 h 27 min
    Bit rate mode                            : Variable
    Bit rate                                 : 2 881 kb/s
    Maximum bit rate                         : 12.0 Mb/s
    Width                                    : 1 280 pixels
    Height                                   : 528 pixels
    Display aspect ratio                     : 2.40:1
    Frame rate mode                          : Constant
    Frame rate                               : 23.976 (24000/1001) FPS
    Standard                                 : NTSC
    Color space                              : YUV
    Chroma subsampling                       : 4:2:0
    Bit depth                                : 8 bits
    Scan type                                : Progressive
    Bits/(Pixel*Frame)                       : 0.178
    Stream size                              : 1.77 GiB (94%)
    Language                                 : English
    Default                                  : Yes
    Forced                                   : No
    Color range                              : Limited
    Color primaries                          : BT.601 NTSC
    Transfer characteristics                 : BT.601
    Matrix coefficients                      : BT.601

    Audio
    ID                                       : 2
    Format                                   : AC-3
    Format/Info                              : Audio Coding 3
    Commercial name                          : Dolby Digital
    Codec ID                                 : A_AC3
    Duration                                 : 1 h 27 min
    Bit rate mode                            : Constant
    Bit rate                                 : 192 kb/s
    Channel(s)                               : 2 channels
    Channel layout                           : L R
    Sampling rate                            : 48.0 kHz
    Frame rate                               : 31.250 FPS (1536 SPF)
    Bit depth                                : 16 bits
    Compression mode                         : Lossy
    Stream size                              : 121 MiB (6%)
    Language                                 : Russian
    Service kind                             : Complete Main
    Default                                  : Yes
    Forced                                   : No

    Свернуть


    Похожие раздачи Искать похожие
    Инструкция по скачиванию
     1  Качаем uTorrent версии 2.0 и выше
     2  После установки, жмем выше под постером на ссылку Скачать [MediaGet] или Скачать .torrent
     3  Открываем скачанный файл через соответствующий клиент: MediaGet или uTorrent
     4  Ждем пока подключатся участники
     5  Качаем
    Комментарии о  Центральный парк / Central Park | WEBRip 720p 
    Ближайшее в кино
    Вверх