• Игры для PS4
  • Игры для PS3
  • Игры для XBOX360
  • Игры для PC
  • Игры для PS2
  • Игры для PSP
  • Для телефонов
  • Музыка
  • Книги / Журналы
  • Обои
  • Опрос
    Удобен ли сайт в использовании?
      0
    • Очень удобен, все понятно1,1,false,300,full
    • Удобен1,2,false,300,full
    • Средне1,3,false,300,full
    • Неудобен, трудно ориентироваться1,4,false,300,full
    • Совсем неудобен1,5,false,300,full
    Статистика
    Всего онлайн -
    Гостей -
    Пользователей -
    Короли трекера
    
    Благодарности () Закрыть
    Название: Орвилл
    Оригинальное название: The Orville
    Год выхода: 2018
    Жанр: фантастика, драма, комедия, приключения
    Режиссер: Брэннон Брага, Джон Кассар, Джеймс Л. Конуэй

    В ролях:
    Сет МакФарлейн, Скотт Граймз, Пенни Джонсон, Питер Макон, Эдрианн Палики, Холстон Сейдж, Ларри Джо Кэмпбелл, Норм МакДональд и др.

    Описание сериала:
    25 столетие – это время когда, человечеству перестало хватать планеты Земля, как источника еды и ресурсов, необходимых для жизни. К тому же все уголки родной планеты уже давно изучены и хочется чего-то большего – новых открытий, иных рас, необычных изобретений, которые можно будет у них выменять на свои какие-то технические достижения. Поставив за цель, ведущие умы человечества достигают ее. Им удается выйти на связь с другими разумными существами, что обитают во вселенной. Следующий шаг – это построить огромный космический корабль, который поможет покорить космические просторы и изучить все воочию. Проект получает название Орвилл и отдается под руководство молодого капитана Мерсера, у которого сейчас в жизни не самый простой период. Он разлучается с супругой, но не смотря на это не упивается горем, а старается наоборот переключиться на что-то иное и космическое путешествие подходит для этого как нельзя лучше.

    Страна: США
    Студии: 20th Century Fox Television, Fuzzy Door Productions, Twentieth Century Fox Television
    Продолжительность: ~00:45:00
    Перевод: Профессиональный (многоголосый, закадровый) - Amedia
    Субтитры: Английские

    [img]https://u.myshows.me/r/53608.png[/img]

    Файл
    Формат: MKV
    Качество: WEB-DL 1080p

    Видео: MPEG-4 AVC, ~ 7500 Кбит/с, 1920x1080
    Аудио RUS: [img]http://s019.radikal.ru/i638/1711/71/d96694063f0f.gif[/img] 48 kHz, AC3, 2 ch, ~192.00 kbps avg
    Аудио ENG: [img]http://s011.radikal.ru/i317/1711/de/b477759edf3d.gif[/img] 48 kHz, Е-AC3, 6 ch, ~640.00 kbps avg

    MediaInfo
    Общее
    Уникальный идентификатор                 : 66339713662042986617009263640744570346 (0x31E8906925092D2B0FCEFA9BEE2C2DEA)
    Полное имя                               : The.Orville.S02E01.Jaloja.AMZN.WEB-DL.1080p.mkv
    Формат                                   : Matroska
    Версия формата                           : Version 4
    Размер файла                             : 2,78 Гбайт
    Продолжительность                        : 48 м. 25 с.
    Общий поток                              : 8209 Кбит/сек
    Дата кодирования                         : UTC 2019-01-05 13:41:36
    Программа кодирования                    : mkvmerge v29.0.0 ("Like It Or Not") 64-bit
    Библиотека кодирования                   : libebml v1.3.6 + libmatroska v1.4.9
    Attachments                              : poster.jpg

    Видео
    Идентификатор                            : 1
    Формат                                   : AVC
    Формат/Информация                        : Advanced Video Codec
    Профиль формата                          : High@L4
    Настройки формата                        : CABAC / 4 Ref Frames
    Параметр CABAC формата                   : Да
    Параметр RefFrames формата               : 4 кадра
    Идентификатор кодека                     : V_MPEG4/ISO/AVC
    Продолжительность                        : 48 м. 25 с.
    Битрейт                                  : 7374 Кбит/сек
    Ширина                                   : 1920 пикселей
    Высота                                   : 1080 пикселей
    Соотношение сторон                       : 16:9
    Режим частоты кадров                     : Постоянный
    Частота кадров                           : 23,976 (24000/1001) кадра/сек
    Цветовое пространство                    : YUV
    Субдискретизация насыщенности            : 4:2:0
    Битовая глубина                          : 8 бит
    Тип развёртки                            : Прогрессивная
    Бит/(Пиксели*Кадры)                      : 0.148
    Размер потока                            : 2,49 Гбайт (90%)
    Язык                                     : English
    Default                                  : Да
    Forced                                   : Нет
    Цветовой диапазон                        : Limited
    Основные цвета                           : BT.709
    Характеристики трансфера                 : BT.709
    Коэффициенты матрицы                     : BT.709

    Аудио #1
    Идентификатор                            : 2
    Формат                                   : AC-3
    Формат/Информация                        : Audio Coding 3
    Коммерческое название                    : Dolby Digital
    Идентификатор кодека                     : A_AC3
    Продолжительность                        : 48 м. 25 с.
    Вид битрейта                             : Постоянный
    Битрейт                                  : 192 Кбит/сек
    Каналы                                   : 2 канала
    Channel layout                           : L R
    Частота                                  : 48,0 КГц
    Частота кадров                           : 31,250 кадров/сек (1536 SPF)
    Битовая глубина                          : 16 бит
    Метод сжатия                             : С потерями
    Размер потока                            : 66,5 Мбайт (2%)
    Заголовок                                : Amedia
    Язык                                     : Russian
    Default                                  : Да
    Forced                                   : Нет

    Аудио #2
    Идентификатор                            : 3
    Формат                                   : E-AC-3
    Формат/Информация                        : Enhanced AC-3
    Коммерческое название                    : Dolby Digital Plus
    Идентификатор кодека                     : A_EAC3
    Продолжительность                        : 48 м. 25 с.
    Вид битрейта                             : Постоянный
    Битрейт                                  : 640 Кбит/сек
    Каналы                                   : 6 каналов
    Channel layout                           : L R C LFE Ls Rs
    Частота                                  : 48,0 КГц
    Частота кадров                           : 31,250 кадров/сек (1536 SPF)
    Метод сжатия                             : С потерями
    Задержка видео                           : 2 мс.
    Размер потока                            : 222 Мбайт (8%)
    Язык                                     : English
    Default                                  : Нет
    Forced                                   : Нет

    Текст
    Идентификатор                            : 4
    Формат                                   : UTF-8
    Идентификатор кодека                     : S_TEXT/UTF8
    Идентификатор кодека/Информация          : UTF-8 Plain Text
    Продолжительность                        : 48 м. 22 с.
    Битрейт                                  : 95 бит/сек
    ElementCount                             : 1029
    Размер потока                            : 33,9 Кбайт (0%)
    Заголовок                                : SDH
    Язык                                     : English
    Default                                  : Нет
    Forced                                   : Нет
    Свернуть


    Инструкция по скачиванию
     1  Качаем uTorrent версии 2.0 и выше
     2  После установки, жмем выше под постером на ссылку Скачать [MediaGet] или Скачать .torrent
     3  Открываем скачанный файл через соответствующий клиент: MediaGet или uTorrent
     4  Ждем пока подключатся участники
     5  Качаем
    Комментарии о  Орвилл / The Orville [Сезон 02 | 01-02 серии из 15] | WEB-DL 1080p 
    Ближайшее в кино
    Вверх