• Игры для PS4
  • Игры для PS3
  • Игры для XBOX360
  • Игры для PC
  • Игры для PS2
  • Игры для PSP
  • Для телефонов
  • Музыка
  • Книги / Журналы
  • Обои
  • Опрос
    Удобен ли сайт в использовании?
      0
    • Очень удобен, все понятно1,1,false,300,full
    • Удобен1,2,false,300,full
    • Средне1,3,false,300,full
    • Неудобен, трудно ориентироваться1,4,false,300,full
    • Совсем неудобен1,5,false,300,full
    Статистика
    Всего онлайн -
    Гостей -
    Пользователей -
    Короли трекера
    
    Благодарности () Закрыть
    Информация о фильме
    Название: Мир цирка (Великолепный шоумен)
    Оригинальное название: Circus World
    Год выхода: 1964
    Жанр: Драма, вестерн, мелодрама
    Режиссер: Генри Хэтэуэй
    В ролях: Джон Уэйн, Клаудия Кардинале, Рита Хэйворт, Ллойд Нолан, Ричард Конте, Джон Смит, Кэтерин Кэт, Ванда Рота, Маргарет МакГраф, Майлз Маллесон, Хосе Мария Каффарель, Кэй Уолш, Роберт Каннингэм

    О фильме:
    Начало XX века. Мэтт Мастерс отправляется в турне по Европе вместе с представлением цирка "Шоу Дикого Запада". Его решение обусловлено тем, что он хочет найти Лили Альфредо, пропавшую много лет назад после смерти мужа-воздушного акробата. Считалось, что ее супруг сам покончил с собой, потому что Лили любила не его, а Мэтта. Пропавшая Лили оставила свою дочь, которую Мэтт воспитал как родную...



    Страна: США
    Студия: Samuel Bronston Productions
    Продолжительность: 02:22:48
    Перевод: Профессиональный многоголосый

    Файл
    Кодек: x.264
    Качество: BDRip 1080p | Circus.World.1964.1080p.BluRay.x264-SPLiTSViLLE
    Видео: MPEG-4 AVC, 9089 Kбит/с, 1920x872, 24.000 кадр/с
    Аудио #1: Русский ( АС3, 2ch, 192 Кбит/с, 48.0 KHz) Профессиональный (многоголосый, закадровый) ООО "Светла"
    Аудио #2: Русский ( АС3, 2ch, 192 Кбит/с, 48.0 KHz) Профессиональный (многоголосый, закадровый) "Мастер Тэйп"
    Аудио #3: Английский ( DTS, 6ch, 768 Кбит/с, 48.0 KHz)
    Субтитры: aнглийские, французские
    MediaInfo
    Источник: Circus.World.1964.1080p.BluRay.x264-SPLiTSViLLE
    General
    Unique ID                      : 199347556620433466929681000639898121564 (0x95F8F15F81CF85C9B89BB0CB3314F55C)
    Complete name                  : Circus.World.1964.BDRip.1080p.mkv
    Format                         : Matroska
    Format version                 : Version 4 / Version 2
    File size                      : 10.2 GiB
    Duration                       : 2 h 22 min
    Overall bit rate               : 10.2 Mb/s
    Encoded date                   : UTC 2019-01-09 23:29:20
    Writing application            : mkvmerge v7.1.0 ("Good Love") 64bit built on Jul 27 2014 13:06:55
    Writing library                : libebml v1.3.0 + libmatroska v1.4.1

    Video
    ID                             : 1
    Format                         : AVC
    Format/Info                    : Advanced Video Codec
    Format profile                 : High@L4.1
    Format settings, CABAC         : Yes
    Format settings, RefFrames     : 4 frames
    Codec ID                       : V_MPEG4/ISO/AVC
    Duration                       : 2 h 22 min
    Bit rate                       : 9 089 kb/s
    Width                          : 1 920 pixels
    Height                         : 872 pixels
    Display aspect ratio           : 2.2:1
    Frame rate mode                : Constant
    Frame rate                     : 24.000 FPS
    Color space                    : YUV
    Chroma subsampling             : 4:2:0
    Bit depth                      : 8 bits
    Scan type                      : Progressive
    Bits/(Pixel*Frame)             : 0.226
    Stream size                    : 9.07 GiB (89%)
    Writing library                : x264 core 142 r2409 d6b4e63
    Encoding settings              : cabac=1 / ref=4 / deblock=1:0:0 / analyse=0x3:0x133 / me=umh / subme=8 / psy=1 / psy_rd=1.00:0.00 / mixed_ref=1 / me_range=16 / chroma_me=1 / trellis=1 / 8x8dct=1 / cqm=0 / deadzone=21,11 / fast_pskip=0 / chroma_qp_offset=-2 / threads=12 / lookahead_threads=2 / sliced_threads=0 / nr=0 / decimate=1 / interlaced=0 / bluray_compat=0 / constrained_intra=0 / bframes=3 / b_pyramid=2 / b_adapt=2 / b_bias=0 / direct=3 / weightb=1 / open_gop=0 / weightp=2 / keyint=250 / keyint_min=24 / scenecut=40 / intra_refresh=0 / rc_lookahead=50 / rc=2pass / mbtree=1 / bitrate=9089 / ratetol=1.0 / qcomp=0.60 / qpmin=0 / qpmax=69 / qpstep=4 / cplxblur=20.0 / qblur=0.5 / ip_ratio=1.40 / aq=1:1.00
    Language                       : English
    Default                        : Yes
    Forced                         : No

    Audio #1
    ID                             : 2
    Format                         : AC-3
    Format/Info                    : Audio Coding 3
    Format settings, Endianness    : Big
    Codec ID                       : A_AC3
    Duration                       : 2 h 22 min
    Bit rate mode                  : Constant
    Bit rate                       : 192 kb/s
    Channel(s)                     : 2 channels
    Channel positions              : Front: L R
    Sampling rate                  : 48.0 kHz
    Frame rate                     : 31.250 FPS (1536 SPF)
    Bit depth                      : 16 bits
    Compression mode               : Lossy
    Stream size                    : 196 MiB (2%)
    Title                          : MVO | ООО "Светла"
    Language                       : Russian
    Service kind                   : Complete Main
    Default                        : Yes
    Forced                         : No

    Audio #2
    ID                             : 3
    Format                         : AC-3
    Format/Info                    : Audio Coding 3
    Format settings, Endianness    : Big
    Codec ID                       : A_AC3
    Duration                       : 2 h 22 min
    Bit rate mode                  : Constant
    Bit rate                       : 192 kb/s
    Channel(s)                     : 2 channels
    Channel positions              : Front: L R
    Sampling rate                  : 48.0 kHz
    Frame rate                     : 31.250 FPS (1536 SPF)
    Bit depth                      : 16 bits
    Compression mode               : Lossy
    Stream size                    : 196 MiB (2%)
    Title                          : MVO | "Мастер Тэйп"
    Language                       : Russian
    Service kind                   : Complete Main
    Default                        : No
    Forced                         : No

    Audio #3
    ID                             : 4
    Format                         : DTS
    Format/Info                    : Digital Theater Systems
    Mode                           : 16
    Format settings, Endianness    : Big
    Codec ID                       : A_DTS
    Duration                       : 2 h 22 min
    Bit rate mode                  : Constant
    Bit rate                       : 768 kb/s
    Channel(s)                     : 6 channels
    Channel positions              : Front: L C R, Side: L R, LFE
    Sampling rate                  : 48.0 kHz
    Frame rate                     : 93.750 FPS (512 SPF)
    Bit depth                      : 24 bits
    Compression mode               : Lossy
    Stream size                    : 784 MiB (7%)
    Language                       : English
    Default                        : No
    Forced                         : No

    Text #1
    ID                             : 5
    Format                         : UTF-8
    Codec ID                       : S_TEXT/UTF8
    Codec ID/Info                  : UTF-8 Plain Text
    Duration                       : 2 h 17 min
    Bit rate                       : 44 b/s
    Count of elements              : 1272
    Stream size                    : 44.7 KiB (0%)
    Language                       : English
    Default                        : No
    Forced                         : No

    Text #2
    ID                             : 6
    Format                         : UTF-8
    Codec ID                       : S_TEXT/UTF8
    Codec ID/Info                  : UTF-8 Plain Text
    Duration                       : 2 h 19 min
    Bit rate                       : 37 b/s
    Count of elements              : 1335
    Stream size                    : 38.7 KiB (0%)
    Language                       : French
    Default                        : No
    Forced                         : No

    Menu
    00:00:00.000                   : en:00:00:00.000
    00:12:01.833                   : en:00:12:01.833
    00:23:58.542                   : en:00:23:58.542
    00:35:03.417                   : en:00:35:03.417
    00:49:28.542                   : en:00:49:28.542
    00:59:48.250                   : en:00:59:48.250
    01:12:41.833                   : en:01:12:41.833
    01:25:03.042                   : en:01:25:03.042
    01:35:45.083                   : en:01:35:45.083
    01:48:47.333                   : en:01:48:47.333
    01:59:37.750                   : en:01:59:37.750
    02:08:58.375                   : en:02:08:58.375
    Свернуть


    Инструкция по скачиванию
     1  Качаем uTorrent версии 2.0 и выше
     2  После установки, жмем выше под постером на ссылку Скачать [MediaGet] или Скачать .torrent
     3  Открываем скачанный файл через соответствующий клиент: MediaGet или uTorrent
     4  Ждем пока подключатся участники
     5  Качаем
    Комментарии о  Мир цирка / Circus World | BDRip 1080p 
    Ближайшее в кино
    Вверх