• Игры для PS4
  • Игры для PS3
  • Игры для XBOX360
  • Игры для PC
  • Игры для PS2
  • Игры для PSP
  • Для телефонов
  • Музыка
  • Книги / Журналы
  • Обои
  • Опрос
    Откуда Вы о нас узнали?
      0
    • От знакомых2,1,false,300,full
    • Из социальных сетей2,2,false,300,full
    • Из поисковых систем2,3,false,300,full
    • Другое2,4,false,300,full
    Статистика
    Всего онлайн -
    Гостей -
    Пользователей -
    Короли трекера
    
    Благодарности () Закрыть
    Информация о фильме
    Название: Старик с пистолетом
    Оригинальное название: The Old Man & the Gun
    Год выхода: 2018
    Жанр: Драма, комедия, криминал, биография
    Режиссер: Дэвид Лоури
    В ролях: Роберт Редфорд, Сисси Спейсек, Кейси Аффлек, Дэнни Гловер, Том Уэйтс, Тика Самптер, Ари Элизабет Джонсон, Тиган Джонсон, Джин Джонс, Джон Дэвид Вашингтон, Элизабет Мосс

    О фильме:
    Правдивая история неисправимого вора Форреста Таккера, который большую часть жизни посвятил обчищению банков и побегу из тюрем. На закате своей беспокойной «карьеры» 78-летний Таккер снова берётся за любимое дело, невзирая на преследование молодого детектива и обязательства перед преданной женой.


    Страна: США
    Студия: Condé Nast, Endgame Entertainment
    Продолжительность: 01:33:03
    Перевод: Любительский (двухголосый, закадровый) | HiWay Grope
    Авторский (одноголосый, закадровый) | А.Важенин (BadBajo)
    Без рекламы

    Файл
    Качество: BDRip 1080p
    Видео: AVC/H.264, 1920x804, ~19,2 Мbps, 23.976 fps
    Звук:
    Аудио 1: AC3, 6 ch, 384 kbps - Русский (HiWay Grope)
    Аудио 2: AC3, 2 ch, 192 kbps - Русский (BadBajo)
    Аудио 3: DTS, 6 ch, 1509 kbps - Английский
    Субтитры: Английские (полные, SDH)

    Семпл
    Mediainfo
    Общее
    Уникальный идентификатор                 : 115920571461578216556907345888420630108 (0x57357D6EFD9D49AACED6DF3AA5E90E5C)
    Полное имя                               : The Old Man the Gun.2018.BDRip.1080p.mkv
    Формат                                   : Matroska
    Версия формата                           : Version 4
    Размер файла                             : 13,8 Гбайт
    Продолжительность                        : 1 ч. 33 м.
    Общий поток                              : 21,3 Мбит/сек
    Название фильма                          : The Old Man & the Gun.2018.BDRip.1080p
    Дата кодирования                         : UTC 2019-01-10 16:05:55
    Программа кодирования                    : mkvmerge v23.0.0 ("The Bride Said No") 64-bit
    Библиотека кодирования                   : libebml v1.3.6 + libmatroska v1.4.9

    Видео
    Идентификатор                            : 1
    Формат                                   : AVC
    Формат/Информация                        : Advanced Video Codec
    Профиль формата                          : High@L4.1
    Настройки формата                        : CABAC / 5 Ref Frames
    Параметр CABAC формата                   : Да
    Параметр RefFrames формата               : 5 кадров
    Идентификатор кодека                     : V_MPEG4/ISO/AVC
    Продолжительность                        : 1 ч. 33 м.
    Битрейт                                  : 19,2 Мбит/сек
    Ширина                                   : 1920 пикселей
    Высота                                   : 804 пикселя
    Соотношение сторон                       : 2,40:1
    Режим частоты кадров                     : Постоянный
    Частота кадров                           : 23,976 (24000/1001) кадра/сек
    Цветовое пространство                    : YUV
    Субдискретизация насыщенности            : 4:2:0
    Битовая глубина                          : 8 бит
    Тип развёртки                            : Прогрессивная
    Бит/(Пиксели*Кадры)                      : 0.519
    Размер потока                            : 12,5 Гбайт (90%)
    Заголовок                                : SAPHiRE
    Библиотека кодирования                   : x264 core 155 r2901 7d0ff22
    Настройки программы                      : cabac=1 / ref=5 / deblock=1:0:0 / analyse=0x3:0x133 / me=umh / subme=10 / psy=1 / psy_rd=1.00:0.00 / mixed_ref=1 / me_range=24 / chroma_me=1 / trellis=2 / 8x8dct=1 / cqm=0 / deadzone=21,11 / fast_pskip=1 / chroma_qp_offset=-2 / threads=24 / lookahead_threads=4 / sliced_threads=0 / nr=0 / decimate=1 / interlaced=0 / bluray_compat=0 / constrained_intra=0 / bframes=8 / b_pyramid=2 / b_adapt=2 / b_bias=0 / direct=3 / weightb=1 / open_gop=0 / weightp=2 / keyint=240 / keyint_min=24 / scenecut=40 / intra_refresh=0 / rc_lookahead=60 / rc=crf / mbtree=1 / crf=17.0 / qcomp=0.60 / qpmin=0 / qpmax=69 / qpstep=4 / ip_ratio=1.40 / aq=1:1.00
    Язык                                     : English
    Default                                  : Да
    Forced                                   : Нет

    Аудио #1
    Идентификатор                            : 2
    Формат                                   : AC-3
    Формат/Информация                        : Audio Coding 3
    Коммерческое название                    : Dolby Digital
    Идентификатор кодека                     : A_AC3
    Продолжительность                        : 1 ч. 33 м.
    Вид битрейта                             : Постоянный
    Битрейт                                  : 384 Кбит/сек
    Каналы                                   : 6 каналов
    Channel layout                           : L R C LFE Ls Rs
    Частота                                  : 48,0 КГц
    Частота кадров                           : 31,250 кадров/сек (1536 SPF)
    Битовая глубина                          : 16 бит
    Метод сжатия                             : С потерями
    Размер потока                            : 256 Мбайт (2%)
    Заголовок                                : DVO | HiWay Grope
    Язык                                     : Russian
    ServiceKind                              : Complete Main
    Default                                  : Да
    Forced                                   : Нет

    Аудио #2
    Идентификатор                            : 3
    Формат                                   : AC-3
    Формат/Информация                        : Audio Coding 3
    Коммерческое название                    : Dolby Digital
    Идентификатор кодека                     : A_AC3
    Продолжительность                        : 1 ч. 32 м.
    Вид битрейта                             : Постоянный
    Битрейт                                  : 192 Кбит/сек
    Каналы                                   : 2 канала
    Channel layout                           : L R
    Частота                                  : 48,0 КГц
    Частота кадров                           : 31,250 кадров/сек (1536 SPF)
    Битовая глубина                          : 16 бит
    Метод сжатия                             : С потерями
    Размер потока                            : 128 Мбайт (1%)
    Заголовок                                : AVO | BadBajo
    Язык                                     : Russian
    ServiceKind                              : Complete Main
    Default                                  : Нет
    Forced                                   : Нет

    Аудио #3
    Идентификатор                            : 4
    Формат                                   : DTS
    Формат/Информация                        : Digital Theater Systems
    Идентификатор кодека                     : A_DTS
    Продолжительность                        : 1 ч. 33 м.
    Вид битрейта                             : Постоянный
    Битрейт                                  : 1509 Кбит/сек
    Каналы                                   : 6 каналов
    Channel layout                           : C L R Ls Rs LFE
    Частота                                  : 48,0 КГц
    Частота кадров                           : 93,750 кадра/сек (512 SPF)
    Битовая глубина                          : 24 бит
    Метод сжатия                             : С потерями
    Размер потока                            : 1004 Мбайт (7%)
    Язык                                     : English
    Default                                  : Нет
    Forced                                   : Нет

    Текст #1
    Идентификатор                            : 5
    Формат                                   : UTF-8
    Идентификатор кодека                     : S_TEXT/UTF8
    Идентификатор кодека/Информация          : UTF-8 Plain Text
    Продолжительность                        : 1 ч. 25 м.
    Битрейт                                  : 56 бит/сек
    ElementCount                             : 1138
    Размер потока                            : 35,3 Кбайт (0%)
    Заголовок                                : Full
    Язык                                     : English
    Default                                  : Нет
    Forced                                   : Нет

    Текст #2
    Идентификатор                            : 6
    Формат                                   : UTF-8
    Идентификатор кодека                     : S_TEXT/UTF8
    Идентификатор кодека/Информация          : UTF-8 Plain Text
    Продолжительность                        : 1 ч. 30 м.
    Битрейт                                  : 68 бит/сек
    ElementCount                             : 1409
    Размер потока                            : 45,1 Кбайт (0%)
    Заголовок                                : SDH
    Язык                                     : English
    Default                                  : Нет
    Forced                                   : Нет

    Меню
    00:00:00.000                             : en:Chapter 01
    00:03:21.618                             : en:Chapter 02
    00:08:18.498                             : en:Chapter 03
    00:13:35.940                             : en:Chapter 04
    00:19:34.507                             : en:Chapter 05
    00:23:02.214                             : en:Chapter 06
    00:26:35.761                             : en:Chapter 07
    00:30:38.962                             : en:Chapter 08
    00:34:17.472                             : en:Chapter 09
    00:38:02.155                             : en:Chapter 10
    00:41:30.697                             : en:Chapter 11
    00:44:40.887                             : en:Chapter 12
    00:48:19.230                             : en:Chapter 13
    00:50:06.003                             : en:Chapter 14
    00:53:44.304                             : en:Chapter 15
    00:56:18.875                             : en:Chapter 16
    01:00:09.981                             : en:Chapter 17
    01:04:19.022                             : en:Chapter 18
    01:09:40.968                             : en:Chapter 19
    01:14:20.790                             : en:Chapter 20
    01:18:02.595                             : en:Chapter 21
    01:21:18.248                             : en:Chapter 22
    01:24:33.944                             : en:Chapter 23
    01:26:49.996                             : en:Chapter 24 Свернуть


    Похожие раздачи Искать похожие
    Инструкция по скачиванию
     1  Качаем uTorrent версии 2.0 и выше
     2  После установки, жмем выше под постером на ссылку Скачать [MediaGet] или Скачать .torrent
     3  Открываем скачанный файл через соответствующий клиент: MediaGet или uTorrent
     4  Ждем пока подключатся участники
     5  Качаем
    Комментарии о  Старик с пистолетом / The Old Man & the Gun | BDRip 1080p 
    Ближайшее в кино
    Вверх