• Игры для PS4
  • Игры для PS3
  • Игры для XBOX360
  • Игры для PC
  • Игры для PS2
  • Игры для PSP
  • Для телефонов
  • Музыка
  • Книги / Журналы
  • Обои
  • Опрос
    Откуда Вы о нас узнали?
      0
    • От знакомых2,1,false,300,full
    • Из социальных сетей2,2,false,300,full
    • Из поисковых систем2,3,false,300,full
    • Другое2,4,false,300,full
    Статистика
    Всего онлайн -
    Гостей -
    Пользователей -
    Короли трекера
    
    Благодарности () Закрыть
    Информация о фильме
    Название: Азбука смерти
    Оригинальное название: The ABCs of Death
    Год выхода: 2012
    Жанр: ужасы, комедия
    Режиссеры: Кааре Эндрюс, Анджела Беттис, Элен Катте, Эрнесто Диас Эспиноса, Джейсон Айзенер, Бруно Форцани, Адриан Гарсиа Больяно, Ксавье Жанс, Хорхе Мишель Грау, Ли Хардкэсл, Нобору Игути, Томас Каппелен Маллинг, Андерс Моргенталер, Ёсихиро Нисимура, Банйонг Писантанакун, Саймон Рамли, Марсель Сармиенто, Джон Шнепп, Срджан Спасоевич, Тимо Тьяджанто, Эндрю Трауки, Начо Вигалондо, Джэйк Уэст, Тай Уэст, Бен Уитли, Адам Вингард, Юдаи Ямагути
    В ролях: Ингрид Болсай Бердал, Эрик Од, Кира Загорский, Иван Гонзалез, Даллас Маллой, Даренция, Ли Хардкэсл, Питер Педреро, Фрейзер Корбетт, Матч, Хироко Ясики, Люси Клементс и др.

    О фильме:
    Каждый из режиссеров выбирает себе букву алфавита и слово, начинающееся на эту букву. Вокруг них и должен строиться сюжет отдельной новеллы. Зрители станут свидетелями самых изощренных убийств по алфавиту от A до Z.



    Страна: США, Канада, Новая Зеландия
    Продолжительность: 02:09:17
    Перевод: профессиональный (многоголосый, закадровый) лицензия
    Оригинальная аудиодорожка: английский
    Субтитры: русские

    Файл
    Качество: BDRip 720p
    Видео: x264, 1280x720 (16:9), 3474 kbps, 24 fps, 0,157 bit/pixel
    Аудио 1: английский / DTS / 5.1 / 48 kHz / 1510 kbps / 16 bit
    Аудио 2: русский / DTS / 5.1 / 48 kHz / 1510 kbps / 16 bit



    MediaInfo
    General
    Unique ID : 171372596561240631361419588894344870138 (0x80ED295A7439E8D7BA4E37C37783F8FA)
    Complete name : Azbuka.Smerti.2012.BDRip.720p.mkv
    Format : Matroska
    Format version : Version 2
    File size : 5.98 GiB
    Duration : 2h 9mn
    Overall bit rate : 6 626 Kbps
    Encoded date : UTC 2013-03-28 19:04:09
    Writing application : mkvmerge v5.8.0 ("No Sleep / Pillow") built on Sep 2 2012 15:37:04
    Writing library : libebml v1.2.3 + libmatroska v1.3.0

    Video
    ID : 1
    Format : AVC
    Format/Info : Advanced Video Codec
    Format profile : High@L4.1
    Format settings, CABAC : Yes
    Format settings, ReFrames : 9 frames
    Codec ID : V_MPEG4/ISO/AVC
    Duration : 2h 9mn
    Bit rate : 3 474 Kbps
    Width : 1 280 pixels
    Height : 720 pixels
    Display aspect ratio : 16:9
    Frame rate : 24.000 fps
    Color space : YUV
    Chroma subsampling : 4:2:0
    Bit depth : 8 bits
    Scan type : Progressive
    Bits/(Pixel*Frame) : 0.157
    Stream size : 3.14 GiB (52%)
    Writing library : x264 core 130 r2273 b3065e6
    Encoding settings : cabac=1 / ref=9 / deblock=1:-2:-2 / analyse=0x3:0x113 / me=umh / subme=10 / psy=1 / psy_rd=1.00:0.15 / mixed_ref=1 / me_range=48 / chroma_me=1 / trellis=2 / 8x8dct=1 / cqm=0 / deadzone=21,11 / fast_pskip=1 / chroma_qp_offset=-3 / threads=12 / lookahead_threads=3 / sliced_threads=0 / nr=0 / decimate=1 / interlaced=0 / bluray_compat=0 / constrained_intra=0 / bframes=13 / b_pyramid=2 / b_adapt=2 / b_bias=0 / direct=3 / weightb=1 / open_gop=0 / weightp=2 / keyint=250 / keyint_min=24 / scenecut=40 / intra_refresh=0 / rc_lookahead=50 / rc=crf / mbtree=1 / crf=18.0 / qcomp=0.60 / qpmin=10 / qpmax=51 / qpstep=4 / vbv_maxrate=50000 / vbv_bufsize=62500 / crf_max=0.0 / nal_hrd=none / ip_ratio=1.40 / aq=2:1.00
    Language : English
    Default : Yes
    Forced : No

    Audio #1
    ID : 2
    Format : DTS
    Format/Info : Digital Theater Systems
    Codec ID : A_DTS
    Duration : 2h 9mn
    Bit rate mode : Constant
    Bit rate : 1 510 Kbps
    Channel(s) : 6 channels
    Channel positions : Front: L C R, Side: L R, LFE
    Sampling rate : 48.0 KHz
    Bit depth : 16 bits
    Compression mode : Lossy
    Stream size : 1.36 GiB (23%)
    Title : English
    Language : English
    Default : No
    Forced : No

    Audio #2
    ID : 3
    Format : DTS
    Format/Info : Digital Theater Systems
    Codec ID : A_DTS
    Duration : 2h 9mn
    Bit rate mode : Constant
    Bit rate : 1 510 Kbps
    Channel(s) : 6 channels
    Channel positions : Front: L C R, Side: L R, LFE
    Sampling rate : 48.0 KHz
    Bit depth : 16 bits
    Compression mode : Lossy
    Stream size : 1.36 GiB (23%)
    Title : Многоголосый
    Language : Russian
    Default : Yes
    Forced : No

    Text
    ID : 4
    Format : UTF-8
    Codec ID : S_TEXT/UTF8
    Codec ID/Info : UTF-8 Plain Text
    Language : Russian
    Default : No
    Forced : No
    Свернуть
    Похожие раздачи Искать похожие
    Инструкция по скачиванию
     1  Качаем uTorrent версии 2.0 и выше
     2  После установки, жмем выше под постером на ссылку Скачать [MediaGet] или Скачать .torrent
     3  Открываем скачанный файл через соответствующий клиент: MediaGet или uTorrent
     4  Ждем пока подключатся участники
     5  Качаем
    Комментарии о  Азбука смерти / The ABCs of Death | BDRip 720p 
    Ближайшее в кино
    Вверх