• Игры для PS4
  • Игры для PS3
  • Игры для XBOX360
  • Игры для PC
  • Игры для PS2
  • Игры для PSP
  • Для телефонов
  • Музыка
  • Книги / Журналы
  • Обои
  • Опрос
    Откуда Вы о нас узнали?
      0
    • От знакомых2,1,false,300,full
    • Из социальных сетей2,2,false,300,full
    • Из поисковых систем2,3,false,300,full
    • Другое2,4,false,300,full
    Статистика
    Всего онлайн -
    Гостей -
    Пользователей -
    Короли трекера
    
    Благодарности () Закрыть
    Информация о фильме
    Название: Хэллоуин
    Оригинальное название: Halloween
    Год выхода: 2018
    Жанр: Ужасы, триллер
    Режиссер: Дэвид Гордон Грин
    В ролях: Джейми Ли Кёртис, Джуди Грир, Энди Мэтичак, Джеймс Джуд Кортни, Ник Касл, Халук Бильгинер, Уилл Пэттон, Риан Риис, Джефферсон Холл, Тоби Хасс



    О фильме: Зло неизменно возвращается, и им нельзя управлять. Его можно временно уничтожить, застрелить, сжечь, но вернется оно всё равно неизбежно. Майкл Майерс не закончил свое дело в Хэддонфилде, и скоро он вернётся домой, чтобы снова убивать.

    Страна: США
    Студия: Blumhouse Productions, Miramax, Rough House Pictures
    Продолжительность: 01:45:47
    Перевод: Дублированный | iTunes

    Качество: BDRemux 1080p
    Видео: MPEG-4 AVC, 1920x1080, 27.9 Mbit/s, 23.976 fps
    Звук:
    Аудио #01: 48 kHz, AC3, 5.1, 384 Kbps | iTunes | RUS |[img]http://img11.lostpic.net/2018/08/13/7c2ebc4025c59bfa2d99e99b51a513dc.png[/img]
    Аудио #02: 48 kHz, DTS-HD MA, 5.1, 5465 Kbps | Оригинал |  ENG |[img]http://img11.lostpic.net/2018/08/13/9611f09865bbb093dacbc8ec792c4ceb.png[/img]
    Субтитры: Английские

    [img]http://img15.lostpic.net/2019/01/10/4054bb0dfa126ca6af157aef8bb77f65.png[/img][img]http://img15.lostpic.net/2019/01/10/b55751be14b3d31a6c9d2a619390043c.png[/img][img]http://img15.lostpic.net/2019/01/10/f54922c3a2811c32501967f1861eae16.png[/img][img]http://img15.lostpic.net/2019/01/10/b02c20012f6cd05a038aa2e34f98f7e9.png[/img][img]http://img15.lostpic.net/2019/01/10/34d9936c898ed269663e120f7f60366e.png[/img]

    MI
    General
    Unique ID                   : 190090052328145798298707565050530340963 (0x8F02032C0CA8B9D5B532E631667FA063)
    Complete name               : D:Video111Halloween.2018.BDREMUX.1080p.seleZen.mkv
    Format                      : Matroska
    Format version              : Version 4
    File size                   : 24.9 GiB
    Duration                    : 1 h 45 min
    Overall bit rate mode       : Variable
    Overall bit rate            : 33.7 Mb/s
    Movie name                  : Halloween 2018 from селезень
    Encoded date                : UTC 2019-01-10 18:56:50
    Writing application         : mkvmerge v7.3.0 ("Nouages") 64bit built on Oct 22 2014 18:53:34
    Writing library             : libebml v1.3.0 + libmatroska v1.4.1

    Video
    ID                          : 1
    Format                      : AVC
    Format/Info                 : Advanced Video Codec
    Format profile              : High@L4.1
    Format settings             : CABAC / 2 Ref Frames
    Format settings, CABAC      : Yes
    Format settings, ReFrames   : 2 frames
    Format settings, GOP        : M=1, N=10
    Codec ID                    : V_MPEG4/ISO/AVC
    Duration                    : 1 h 45 min
    Bit rate mode               : Variable
    Bit rate                    : 27.9 Mb/s
    Width                       : 1 920 pixels
    Height                      : 1 080 pixels
    Display aspect ratio        : 16:9
    Frame rate mode             : Constant
    Frame rate                  : 23.976 (24000/1001) FPS
    Color space                 : YUV
    Chroma subsampling          : 4:2:0
    Bit depth                   : 8 bits
    Scan type                   : Progressive
    Bits/(Pixel*Frame)          : 0.561
    Stream size                 : 20.6 GiB (83%)
    Language                    : English
    Default                     : Yes
    Forced                      : No

    Audio #1
    ID                          : 2
    Format                      : AC-3
    Format/Info                 : Audio Coding 3
    Commercial name             : Dolby Digital
    Codec ID                    : A_AC3
    Duration                    : 1 h 45 min
    Bit rate mode               : Constant
    Bit rate                    : 384 kb/s
    Channel(s)                  : 6 channels
    Channel layout              : L R C LFE Ls Rs
    Sampling rate               : 48.0 kHz
    Frame rate                  : 31.250 FPS (1536 SPF)
    Bit depth                   : 16 bits
    Compression mode            : Lossy
    Stream size                 : 291 MiB (1%)
    Title                       : iTunes
    Language                    : Russian
    Service kind                : Complete Main
    Default                     : Yes
    Forced                      : Yes

    Audio #2
    ID                          : 3
    Format                      : DTS XLL X
    Format/Info                 : Digital Theater Systems
    Commercial name             : DTS-HD Master Audio
    Codec ID                    : A_DTS
    Duration                    : 1 h 45 min
    Bit rate mode               : Variable
    Bit rate                    : 5 465 kb/s
    Channel(s)                  : 6 channels
    Channel(s)_Original         : Object Based
    Channel layout              : Object Based
    Sampling rate               : 48.0 kHz
    Frame rate                  : 93.750 FPS (512 SPF)
    Stream size                 : 4.04 GiB (16%)
    Title                       : Original
    Language                    : English
    Default                     : No
    Forced                      : No

    Text
    ID                          : 4
    Format                      : UTF-8
    Codec ID                    : S_TEXT/UTF8
    Codec ID/Info               : UTF-8 Plain Text
    Duration                    : 1 h 38 min
    Bit rate                    : 54 b/s
    Count of elements           : 1181
    Stream size                 : 39.4 KiB (0%)
    Title                       : Full
    Language                    : English
    Default                     : No
    Forced                      : No

    Menu
    00:00:00.000                : en:00:00:00.000
    00:08:42.522                : en:00:08:42.522
    00:14:26.949                : en:00:14:26.949
    00:20:46.996                : en:00:20:46.996
    00:23:17.855                : en:00:23:17.855
    00:27:45.080                : en:00:27:45.080
    00:32:55.724                : en:00:32:55.724
    00:40:51.366                : en:00:40:51.366
    00:44:41.053                : en:00:44:41.053
    00:48:26.403                : en:00:48:26.403
    00:53:26.453                : en:00:53:26.453
    00:59:18.597                : en:00:59:18.597
    01:03:22.340                : en:01:03:22.340
    01:07:29.629                : en:01:07:29.629
    01:14:46.524                : en:01:14:46.524
    01:18:10.561                : en:01:18:10.561
    01:22:04.837                : en:01:22:04.837
    01:30:09.904                : en:01:30:09.904
    01:35:33.394                : en:01:35:33.394
    01:40:41.494                : en:01:40:41.494Свернуть
    Похожие раздачи Искать похожие
    Инструкция по скачиванию
     1  Качаем uTorrent версии 2.0 и выше
     2  После установки, жмем выше под постером на ссылку Скачать [MediaGet] или Скачать .torrent
     3  Открываем скачанный файл через соответствующий клиент: MediaGet или uTorrent
     4  Ждем пока подключатся участники
     5  Качаем
    Комментарии о  Хэллоуин / Halloween | BDRemux 1080p 
    Ближайшее в кино
    Вверх