• Игры для PS4
  • Игры для PS3
  • Игры для XBOX360
  • Игры для PC
  • Игры для PS2
  • Игры для PSP
  • Для телефонов
  • Музыка
  • Книги / Журналы
  • Обои
  • Опрос
    Откуда Вы о нас узнали?
      0
    • От знакомых2,1,false,300,full
    • Из социальных сетей2,2,false,300,full
    • Из поисковых систем2,3,false,300,full
    • Другое2,4,false,300,full
    Статистика
    Всего онлайн -
    Гостей -
    Пользователей -
    Короли трекера
    
    Благодарности () Закрыть
    Информация о фильме
    Название: Агент Джонни Инглиш 3.0
    Оригинальное название: Johnny English Strikes Again
    Год выхода: 2018
    Жанр: Боевик, комедия, приключения
    Режиссер: Дэвид Керр
    В ролях: Роуэн Аткинсон, Эмма Томпсон, Ольга Куриленко, Джейк Лэси, Бен Миллер, Миранда Хеннесси, Адам Джеймс, Пиппа Беннетт-Уорнер, Ирена Тишина, Джеймс Илс



    О фильме: Когда все агенты секретной службы Её Величества внезапно выходят из строя, в игру вступает запасной вариант. Образец английского стиля и любимец роковых красоток; король безвыходных ситуаций и хранитель аналоговых традиций в цифровом мире, агент Джонни Инглиш — боль и гордость британской разведки. Этому парню есть что взбалтывать, и он взболтает не по-детски.

    Страна: Великобритания, Франция, США
    Студия: Universal Pictures, Studio Canal, Working Title Films, Perfect World Pictures
    Продолжительность: 01:28:33
    Перевод: Дублированный | Лицензия

    Качество: BDRemux 1080p
    Видео: MPEG-4 AVC, 1920x1080, 26.5 Mbit/s, 23.976 fps
    Звук:
    Аудио #01: 48 kHz, DTS, 5.1, 768 Kbps | Дублированный | RUS |[img]http://img11.lostpic.net/2018/08/13/7c2ebc4025c59bfa2d99e99b51a513dc.png[/img]
    Аудио #02: 48 kHz, AC3, 5.1, 448 Kbps | Дублированный | RUS |[img]http://img11.lostpic.net/2018/08/13/7c2ebc4025c59bfa2d99e99b51a513dc.png[/img]
    Аудио #03: 48 kHz, DTS-HD MA, 7.1, 5909 Kbps | Оригинал |  ENG |[img]http://img11.lostpic.net/2018/08/13/9611f09865bbb093dacbc8ec792c4ceb.png[/img]
    Субтитры: Русские (Forced, full), английские

    [img]http://img15.lostpic.net/2019/01/09/9b263530180dbf9a3886f9b092059ee1.png[/img][img]http://img15.lostpic.net/2019/01/09/3d8f56caa7d9802587c24496751d6e00.png[/img][img]http://img15.lostpic.net/2019/01/09/1fd7541e68f2390027d47eeb6764ef42.png[/img][img]http://img15.lostpic.net/2019/01/09/8c406d59531e2435750af9bf6b18c545.png[/img][img]http://img15.lostpic.net/2019/01/09/d8dbe576b68119a5796f99ac95c0f0a2.png[/img]

    MI
    General
    Unique ID                   : 83077617281572951744224696768238870024 (0x3E802AC5F5218316B9D2D046500E5E08)
    Complete name               : D:Video111Johnny.English.Strikes.Again.2018.Lic.BDREMUX.1080p.seleZen.mkv
    Format                      : Matroska
    Format version              : Version 4
    File size                   : 20.8 GiB
    Duration                    : 1 h 28 min
    Overall bit rate mode       : Variable
    Overall bit rate            : 33.6 Mb/s
    Movie name                  : Johnny English Strikes Again 2018 from селезень
    Encoded date                : UTC 2019-01-10 19:09:43
    Writing application         : mkvmerge v29.0.0 ("Like It Or Not") 64-bit
    Writing library             : libebml v1.3.6 + libmatroska v1.4.9

    Video
    ID                          : 1
    Format                      : AVC
    Format/Info                 : Advanced Video Codec
    Format profile              : High@L4.1
    Format settings             : CABAC / 4 Ref Frames
    Format settings, CABAC      : Yes
    Format settings, ReFrames   : 4 frames
    Codec ID                    : V_MPEG4/ISO/AVC
    Duration                    : 1 h 28 min
    Bit rate mode               : Variable
    Bit rate                    : 26.5 Mb/s
    Maximum bit rate            : 29.0 Mb/s
    Width                       : 1 920 pixels
    Height                      : 1 080 pixels
    Display aspect ratio        : 16:9
    Frame rate mode             : Constant
    Frame rate                  : 23.976 (24000/1001) FPS
    Color space                 : YUV
    Chroma subsampling          : 4:2:0
    Bit depth                   : 8 bits
    Scan type                   : Progressive
    Bits/(Pixel*Frame)          : 0.533
    Stream size                 : 16.4 GiB (79%)
    Language                    : English
    Default                     : Yes
    Forced                      : No

    Audio #1
    ID                          : 2
    Format                      : DTS
    Format/Info                 : Digital Theater Systems
    Codec ID                    : A_DTS
    Duration                    : 1 h 28 min
    Bit rate mode               : Constant
    Bit rate                    : 768 kb/s
    Channel(s)                  : 6 channels
    Channel layout              : C L R Ls Rs LFE
    Sampling rate               : 48.0 kHz
    Frame rate                  : 93.750 FPS (512 SPF)
    Bit depth                   : 24 bits
    Compression mode            : Lossy
    Stream size                 : 486 MiB (2%)
    Title                       : Dub [License]
    Language                    : Russian
    Default                     : Yes
    Forced                      : Yes

    Audio #2
    ID                          : 3
    Format                      : AC-3
    Format/Info                 : Audio Coding 3
    Commercial name             : Dolby Digital
    Codec ID                    : A_AC3
    Duration                    : 1 h 28 min
    Bit rate mode               : Constant
    Bit rate                    : 448 kb/s
    Channel(s)                  : 6 channels
    Channel layout              : L R C LFE Ls Rs
    Sampling rate               : 48.0 kHz
    Frame rate                  : 31.250 FPS (1536 SPF)
    Bit depth                   : 16 bits
    Compression mode            : Lossy
    Stream size                 : 284 MiB (1%)
    Title                       : Dub [License]
    Language                    : Russian
    Service kind                : Complete Main
    Default                     : No
    Forced                      : No

    Audio #3
    ID                          : 4
    Format                      : DTS XLL X
    Format/Info                 : Digital Theater Systems
    Commercial name             : DTS-HD Master Audio
    Codec ID                    : A_DTS
    Duration                    : 1 h 28 min
    Bit rate mode               : Variable
    Bit rate                    : 5 909 kb/s
    Channel(s)                  : 8 channels
    Channel(s)_Original         : Object Based
    Channel layout              : Object Based
    Sampling rate               : 48.0 kHz
    Frame rate                  : 93.750 FPS (512 SPF)
    Bit depth                   : 24 bits
    Stream size                 : 3.66 GiB (18%)
    Title                       : Original
    Language                    : English
    Default                     : No
    Forced                      : No

    Text #1
    ID                          : 5
    Format                      : UTF-8
    Codec ID                    : S_TEXT/UTF8
    Codec ID/Info               : UTF-8 Plain Text
    Duration                    : 1 h 27 min
    Bit rate                    : 0 b/s
    Count of elements           : 15
    Stream size                 : 459 Bytes (0%)
    Title                       : Forced
    Language                    : Russian
    Default                     : Yes
    Forced                      : Yes

    Text #2
    ID                          : 6
    Format                      : UTF-8
    Codec ID                    : S_TEXT/UTF8
    Codec ID/Info               : UTF-8 Plain Text
    Duration                    : 1 h 27 min
    Bit rate                    : 69 b/s
    Count of elements           : 1007
    Stream size                 : 44.4 KiB (0%)
    Title                       : Full
    Language                    : Russian
    Default                     : No
    Forced                      : No

    Text #3
    ID                          : 7
    Format                      : UTF-8
    Codec ID                    : S_TEXT/UTF8
    Codec ID/Info               : UTF-8 Plain Text
    Duration                    : 1 h 22 min
    Bit rate                    : 56 b/s
    Count of elements           : 1022
    Stream size                 : 34.3 KiB (0%)
    Title                       : Full
    Language                    : English
    Default                     : No
    Forced                      : No

    Menu
    00:00:00.000                : :Chapter 01
    00:05:06.681                : :Chapter 02
    00:09:05.378                : :Chapter 03
    00:13:14.794                : :Chapter 04
    00:19:22.369                : :Chapter 05
    00:21:31.832                : :Chapter 06
    00:26:41.975                : :Chapter 07
    00:32:31.240                : :Chapter 08
    00:34:48.086                : :Chapter 09
    00:39:49.428                : :Chapter 10
    00:45:49.121                : :Chapter 11
    00:51:22.204                : :Chapter 12
    00:54:31.851                : :Chapter 13
    00:58:58.201                : :Chapter 14
    01:02:58.441                : :Chapter 15
    01:08:21.597                : :Chapter 16
    01:11:40.963                : :Chapter 17
    01:15:03.415                : :Chapter 18
    01:20:54.808                : :Chapter 19
    01:23:52.527                : :Chapter 20Свернуть
    Инструкция по скачиванию
     1  Качаем uTorrent версии 2.0 и выше
     2  После установки, жмем выше под постером на ссылку Скачать [MediaGet] или Скачать .torrent
     3  Открываем скачанный файл через соответствующий клиент: MediaGet или uTorrent
     4  Ждем пока подключатся участники
     5  Качаем
    Комментарии о  Агент Джонни Инглиш 3.0 / Johnny English Strikes Again | BDRemux 1080p 
    Ближайшее в кино
    Вверх