• Игры для PS4
  • Игры для PS3
  • Игры для XBOX360
  • Игры для PC
  • Игры для PS2
  • Игры для PSP
  • Для телефонов
  • Музыка
  • Книги / Журналы
  • Обои
  • Опрос
    Откуда Вы о нас узнали?
      0
    • От знакомых2,1,false,300,full
    • Из социальных сетей2,2,false,300,full
    • Из поисковых систем2,3,false,300,full
    • Другое2,4,false,300,full
    Статистика
    Всего онлайн -
    Гостей -
    Пользователей -
    Короли трекера
    
    Благодарности () Закрыть
    Информация о фильме
    Название: Смолфут
    Оригинальное название: Smallfoot
    Год выхода: 2018
    Жанр: Мультфильм, мюзикл, фэнтези, комедия, приключения, семейный, полнометражный
    Режиссер: Кэри Киркпатрик, Джейсон Рейсиг
    В ролях: Ченнинг Татум, Джеймс Корден, Зендая Колеман, Коммон, Леброн Джеймс, Дэнни ДеВито, Джина Родригез, Яра Шахиди, Эли Генри, Джимми Татро



    О фильме: Молодой находчивый йети сталкивается с тем, кого, по его глубокому убеждению, не существует — человеком. Новости о «смолфуте» приносят ему славу и шанс завоевать девушку его мечты. А ещё — вызывают переполох среди простых йети, которые теперь гадают, кто же ещё обитает в большом мире за пределами их маленькой заснеженной деревушки.

    Страна: США
    Студия: Warner Animation Group, Warner Bros., Zaftig Films
    Продолжительность: 01:36:17
    Перевод: Дублированный | Лицензия

    Качество: BDRip 1080p | 3D HSBS
    Видео: MPEG-4 AVC, 1920x1080, 11.1 Мbit/s, 23.976 fps
    Звук:
    Аудио #01: 48 kHz, AC3, 5.1, 640 Kbps | Дублированный | RUS |[img]http://img11.lostpic.net/2018/08/13/7c2ebc4025c59bfa2d99e99b51a513dc.png[/img]
    Аудио #02: 48 kHz, AC3, 2.0, 160 Kbps | Дублированный | UKR |[img]http://img15.lostpic.net/2018/12/26/741e24bda3917296a788eb4e80c72377.png[/img]
    Аудио #03: 48 kHz, DTS, 5.1, 1510 Kbps | Оригинал |  ENG |[img]http://img11.lostpic.net/2018/08/13/9611f09865bbb093dacbc8ec792c4ceb.png[/img]
    Субтитры: Русские (Forced, full), украинские (Forced), английские

    [img]http://img15.lostpic.net/2018/12/27/5423b9a5e6c210302378201d0d5d2cb3.png[/img][img]http://img15.lostpic.net/2018/12/27/e9e41f03fe1ddf88c8ffc745f925da50.png[/img][img]http://img15.lostpic.net/2018/12/27/a574f589bb2fcb6f4fa68e2a12e95156.png[/img][img]http://img15.lostpic.net/2018/12/27/6d1c09bdb3924564eb259140ef1e81c9.png[/img][img]http://img15.lostpic.net/2018/12/27/f1b533104a5231f153da73420b8138f8.png[/img]

    Формат 3D: Anamorph SideBySide - Горизонтальная анаморфная стереопара.
    Порядок ракурсов: левый ракурс первый

    MI
    General
    Unique ID                   : 282934927050303066722834667465347206563 (0xD4DB48EABEA3E3EEE1FDE3D54DE08DA3)
    Complete name               : D:Video111Smallfoot.2018.Lic.3D.HSBS.BDRip.1080p.seleZen.mkv
    Format                      : Matroska
    Format version              : Version 4
    File size                   : 9.02 GiB
    Duration                    : 1 h 36 min
    Overall bit rate            : 13.4 Mb/s
    Movie name                  : Smallfoot 2018 HSBS 3D from селезень
    Encoded date                : UTC 2019-01-10 20:41:52
    Writing application         : mkvmerge v29.0.0 ("Like It Or Not") 64-bit
    Writing library             : libebml v1.3.6 + libmatroska v1.4.9

    Video
    ID                          : 1
    Format                      : AVC
    Format/Info                 : Advanced Video Codec
    Format profile              : High@L4.1
    Format settings             : CABAC / 4 Ref Frames
    Format settings, CABAC      : Yes
    Format settings, ReFrames   : 4 frames
    Codec ID                    : V_MPEG4/ISO/AVC
    Duration                    : 1 h 36 min
    Bit rate                    : 11.1 Mb/s
    Width                       : 1 920 pixels
    Height                      : 1 080 pixels
    Display aspect ratio        : 16:9
    Frame rate mode             : Constant
    Frame rate                  : 23.976 (24000/1001) FPS
    Color space                 : YUV
    Chroma subsampling          : 4:2:0
    Bit depth                   : 8 bits
    Scan type                   : Progressive
    Bits/(Pixel*Frame)          : 0.223
    Stream size                 : 7.47 GiB (83%)
    Title                       : 剑心@HDSky
    Writing library             : x264 core 148 r2699+6+41 29a38aa Yuuki [8-bit@4:2:0 X86_64][GCC 5.3.0]
    Encoding settings           : cabac=1 / ref=3 / deblock=1:-3:-3 / analyse=0x3:0x113 / me=umh / subme=11 / psy=1 / fade_compensate=0.00 / psy_rd=1.00:0.05 / mixed_ref=1 / me_range=48 / chroma_me=1 / trellis=2 / 8x8dct=1 / cqm=0 / deadzone=21,11 / fast_pskip=0 / chroma_qp_offset=-2 / threads=24 / lookahead_threads=4 / sliced_threads=0 / nr=0 / decimate=1 / interlaced=0 / bluray_compat=0 / constrained_intra=0 / fgo=0 / bframes=8 / b_pyramid=2 / b_adapt=2 / b_bias=0 / direct=3 / weightb=1 / open_gop=0 / weightp=2 / keyint=250 / keyint_min=23 / scenecut=40 / intra_refresh=0 / rc_lookahead=40 / rc=crf / mbtree=0 / crf=17.7000 / qcomp=0.60 / qpmin=0:0:0 / qpmax=69:69:69 / qpstep=4 / vbv_maxrate=50000 / vbv_bufsize=40000 / crf_max=0.0 / nal_hrd=none / filler=0 / ip_ratio=1.40 / pb_ratio=1.30 / aq=3:0.90
    Language                    : English
    Default                     : Yes
    Forced                      : No

    Audio #1
    ID                          : 2
    Format                      : AC-3
    Format/Info                 : Audio Coding 3
    Commercial name             : Dolby Digital
    Codec ID                    : A_AC3
    Duration                    : 1 h 36 min
    Bit rate mode               : Constant
    Bit rate                    : 640 kb/s
    Channel(s)                  : 6 channels
    Channel layout              : L R C LFE Ls Rs
    Sampling rate               : 48.0 kHz
    Frame rate                  : 31.250 FPS (1536 SPF)
    Bit depth                   : 16 bits
    Compression mode            : Lossy
    Stream size                 : 441 MiB (5%)
    Title                       : Dub [License]
    Language                    : Russian
    Service kind                : Complete Main
    Default                     : Yes
    Forced                      : Yes

    Audio #2
    ID                          : 3
    Format                      : AC-3
    Format/Info                 : Audio Coding 3
    Commercial name             : Dolby Digital
    Codec ID                    : A_AC3
    Duration                    : 1 h 36 min
    Bit rate mode               : Constant
    Bit rate                    : 160 kb/s
    Channel(s)                  : 2 channels
    Channel layout              : L R
    Sampling rate               : 48.0 kHz
    Frame rate                  : 31.250 FPS (1536 SPF)
    Bit depth                   : 16 bits
    Compression mode            : Lossy
    Stream size                 : 110 MiB (1%)
    Title                       : Dub
    Language                    : Ukrainian
    Service kind                : Complete Main
    Default                     : No
    Forced                      : No

    Audio #3
    ID                          : 4
    Format                      : DTS
    Format/Info                 : Digital Theater Systems
    Codec ID                    : A_DTS
    Duration                    : 1 h 36 min
    Bit rate mode               : Constant
    Bit rate                    : 1 509 kb/s
    Channel(s)                  : 6 channels
    Channel layout              : C L R Ls Rs LFE
    Sampling rate               : 48.0 kHz
    Frame rate                  : 93.750 FPS (512 SPF)
    Bit depth                   : 24 bits
    Compression mode            : Lossy
    Stream size                 : 1.01 GiB (11%)
    Title                       : Original
    Language                    : English
    Default                     : No
    Forced                      : No

    Text #1
    ID                          : 5
    Format                      : UTF-8
    Codec ID                    : S_TEXT/UTF8
    Codec ID/Info               : UTF-8 Plain Text
    Duration                    : 55 min 58 s
    Bit rate                    : 1 b/s
    Count of elements           : 19
    Stream size                 : 729 Bytes (0%)
    Title                       : Forced
    Language                    : Russian
    Default                     : Yes
    Forced                      : Yes

    Text #2
    ID                          : 6
    Format                      : UTF-8
    Codec ID                    : S_TEXT/UTF8
    Codec ID/Info               : UTF-8 Plain Text
    Duration                    : 1 h 35 min
    Bit rate                    : 108 b/s
    Count of elements           : 1500
    Stream size                 : 76.0 KiB (0%)
    Title                       : Full
    Language                    : Russian
    Default                     : No
    Forced                      : No

    Text #3
    ID                          : 7
    Format                      : UTF-8
    Codec ID                    : S_TEXT/UTF8
    Codec ID/Info               : UTF-8 Plain Text
    Duration                    : 55 min 59 s
    Bit rate                    : 1 b/s
    Count of elements           : 19
    Stream size                 : 750 Bytes (0%)
    Title                       : Forced
    Language                    : Ukrainian
    Default                     : No
    Forced                      : No

    Text #4
    ID                          : 8
    Format                      : UTF-8
    Codec ID                    : S_TEXT/UTF8
    Codec ID/Info               : UTF-8 Plain Text
    Duration                    : 1 h 30 min
    Bit rate                    : 75 b/s
    Count of elements           : 1774
    Stream size                 : 50.2 KiB (0%)
    Title                       : Full
    Language                    : English
    Default                     : No
    Forced                      : No

    Text #5
    ID                          : 9
    Format                      : UTF-8
    Codec ID                    : S_TEXT/UTF8
    Codec ID/Info               : UTF-8 Plain Text
    Duration                    : 1 h 30 min
    Bit rate                    : 88 b/s
    Count of elements           : 2098
    Stream size                 : 58.6 KiB (0%)
    Title                       : SDH
    Language                    : English
    Default                     : No
    Forced                      : No

    Menu
    00:00:00.000                : :Chapter 01
    00:09:56.262                : :Chapter 02
    00:21:36.295                : :Chapter 03
    00:32:10.637                : :Chapter 04
    00:38:33.602                : :Chapter 05
    00:49:59.705                : :Chapter 06
    00:55:37.167                : :Chapter 07
    01:01:53.209                : :Chapter 08
    01:12:04.278                : :Chapter 09
    01:18:26.076                : :Chapter 10
    01:26:16.796                : :Chapter 11
    01:31:12.300                : :Chapter 12Свернуть
    Похожие раздачи Искать похожие
    Инструкция по скачиванию
     1  Качаем uTorrent версии 2.0 и выше
     2  После установки, жмем выше под постером на ссылку Скачать [MediaGet] или Скачать .torrent
     3  Открываем скачанный файл через соответствующий клиент: MediaGet или uTorrent
     4  Ждем пока подключатся участники
     5  Качаем
    Комментарии о  Смолфут / Smallfoot | 3D-Video | BDRip 1080p 
    Ближайшее в кино
    Вверх