• Игры для PS4
  • Игры для PS3
  • Игры для XBOX360
  • Игры для PC
  • Игры для PS2
  • Игры для PSP
  • Для телефонов
  • Музыка
  • Книги / Журналы
  • Обои
  • Опрос
    Удобен ли сайт в использовании?
      0
    • Очень удобен, все понятно1,1,false,300,full
    • Удобен1,2,false,300,full
    • Средне1,3,false,300,full
    • Неудобен, трудно ориентироваться1,4,false,300,full
    • Совсем неудобен1,5,false,300,full
    Статистика
    Всего онлайн -
    Гостей -
    Пользователей -
    Короли трекера
    
    Благодарности () Закрыть
    Информация о фильме
    Название: Веселый Париж / Мурлыка
    Оригинальное название: Gay Purr-ee
    Год выпуска: 1962
    Выпущено: США, United Productions of America (UPA), Warner Bros. Pictures
    Жанр:  Мультфильм, мюзикл, семейный, полнометражный
    Режиссер: Эйб Левитов
    В ролях: Джуди Гарлэнд, Робер Гуле, Ред Баттонс, Пол Фрис, Гермиона Гингольд, Мори Амстердам, Джули Беннетт, Мэл Бланк, Джун Форэй, Джоан Гарднер, Турль Рейвенскрофт

    О фильме: Мурлыка - это деревенская кошечка, мечтающая о жизни в Париже. Веселое, наполненное песнями и очаровательной музыкой приключение начинается с похищения Мурлыки котами-преступниками. Дела ее плохи. Но отважные коты - Жан-Том и его верный друг Робеспьер - раскрывают преступный замысел и бросаются на выручку Мурлыке в надежде спасти похищенную кошечку.

    Продолжительность: 01:25:00
    Перевод: Профессиональный многоголосый, авторский
    Субтитры: Английские
    Навигация по главам: Есть

    Файл
    Качество: WEB-DL 1080p
    Видео: MPEG-4 AVC, 14,3 Мбит/сек, 1920x1080, 23,976 кадра/сек
    Аудио #1: AC3, 2 ch, 128 Кбит/сек | Русский, профессиональный (многоголосый закадровый) DVD Магия
    Аудио #2: AC3, 2 ch, 192 Кбит/сек | Русский, авторский (одноголосый закадровый) Вартан Дохалов
    Аудио #3: AC3, 2 ch, 192 Кбит/сек | Русский, авторский (одноголосый закадровый) Андрей Дольский
    Аудио #4: AC3, 2 ch, 192 Кбит/сек | Английский, оригинал
    Аудио #5: AC3, 2 ch, 192 Кбит/сек | Французский, профессиональный (полное дублирование)



    Скриншоты
    [screen]http://img15.lostpic.net/2019/01/10/0a4da1c01d1a0b5a8722d7e22924dd6c.png[/screen][screen]http://img15.lostpic.net/2019/01/10/ca0a65a089d880fd11a854a799edd6c6.png[/screen][screen]http://img15.lostpic.net/2019/01/10/09e5bf0e95c9201eca7e2a1a7cb8edaf.png[/screen][screen]http://img15.lostpic.net/2019/01/10/3f94974a9813cad3387d1352761f11f4.png[/screen][screen]http://img15.lostpic.net/2019/01/10/1a0a0db51bc044a867012a896ee14d80.png[/screen][screen]http://img15.lostpic.net/2019/01/10/d16a34f0cc8b9f8286a5eab2609b47f7.png[/screen][screen]http://img15.lostpic.net/2019/01/10/a5210d126bfe0a849e965e7fd3cd4f00.png[/screen][screen]http://img15.lostpic.net/2019/01/10/bdf88324b439f8abefbb5a7f45b7b7dd.png[/screen]Свернуть


    Инфо-файл
    Общее
    Уникальный идентификатор                 : 214687203168112048342121839146015877847 (0xA1834056E3973A52BBD6450F979B6AD7)
    Полное имя                               : Веселый.Париж.1962.WEB-DL.1080p.mkv
    Формат                                   : Matroska
    Версия формата                           : Version 2
    Размер файла                             : 9,23 Гбайт
    Продолжительность                        : 1 ч. 24 м.
    Режим общего битрейта                    : Переменный
    Общий поток                              : 15,5 Мбит/сек
    Дата кодирования                         : UTC 2019-01-10 06:25:25
    Программа кодирования                    : mkvmerge v5.8.0 ("No Sleep / Pillow") built on Sep  2 2012 15:37:04
    Библиотека кодирования                   : libebml v1.2.3 + libmatroska v1.3.0

    Видео
    Идентификатор                            : 1
    Формат                                   : AVC
    Формат/Информация                        : Advanced Video Codec
    Профиль формата                          : High@L4
    Настройки формата                        : CABAC / 4 Ref Frames
    Параметр CABAC формата                   : Да
    Параметр RefFrames формата               : 4 кадра
    Идентификатор кодека                     : V_MPEG4/ISO/AVC
    Продолжительность                        : 1 ч. 24 м.
    Вид битрейта                             : Переменный
    Битрейт                                  : 14,3 Мбит/сек
    Максимальный битрейт                     : 15,0 Мбит/сек
    Ширина                                   : 1920 пикселей
    Высота                                   : 1080 пикселей
    Соотношение сторон                       : 16:9
    Режим частоты кадров                     : Постоянный
    Частота кадров                           : 23,976 (24000/1001) кадра/сек
    Цветовое пространство                    : YUV
    Субдискретизация насыщенности            : 4:2:0
    Битовая глубина                          : 8 бит
    Тип развёртки                            : Прогрессивная
    Бит/(Пиксели*Кадры)                      : 0.288
    Размер потока                            : 8,51 Гбайт (92%)
    Библиотека кодирования                   : x264 core 148 r2623 d5b2374
    Настройки программы                      : cabac=1 / ref=4 / deblock=1:-1:-1 / analyse=0x3:0x133 / me=umh / subme=9 / psy=1 / psy_rd=1.00:0.15 / mixed_ref=1 / me_range=24 / chroma_me=1 / trellis=2 / 8x8dct=1 / cqm=0 / deadzone=21,11 / fast_pskip=1 / chroma_qp_offset=-3 / threads=34 / lookahead_threads=5 / sliced_threads=0 / nr=150 / decimate=1 / interlaced=0 / bluray_compat=0 / constrained_intra=0 / bframes=8 / b_pyramid=2 / b_adapt=2 / b_bias=0 / direct=3 / weightb=1 / open_gop=0 / weightp=2 / keyint=120 / keyint_min=61 / scenecut=0 / intra_refresh=0 / rc_lookahead=120 / rc=crf / mbtree=1 / crf=18.0 / qcomp=0.60 / qpmin=0 / qpmax=69 / qpstep=4 / vbv_maxrate=15000 / vbv_bufsize=31250 / crf_max=0.0 / nal_hrd=vbr / filler=0 / ip_ratio=1.40 / aq=3:1.00
    Язык                                     : English
    По умолчанию                             : Да
    Принудительно                            : Нет
    Цветовой диапазон                        : Limited
    Основные цвета                           : BT.709
    Характеристики трансфера                 : BT.709
    Коэффициенты матрицы                     : BT.709

    Аудио #1
    Идентификатор                            : 2
    Формат                                   : AC-3
    Формат/Информация                        : Audio Coding 3
    Идентификатор кодека                     : A_AC3
    Продолжительность                        : 1 ч. 24 м.
    Вид битрейта                             : Постоянный
    Битрейт                                  : 128 Кбит/сек
    Каналы                                   : 1 канал
    Расположение каналов                     : Front: C
    Частота                                  : 48,0 КГц
    Частота кадров                           : 31,250 кадров/сек (1536 SPF)
    Битовая глубина                          : 16 бит
    Метод сжатия                             : С потерями
    Размер потока                            : 77,8 Мбайт (1%)
    Заголовок                                : MVO | DVD Магия
    Язык                                     : Russian
    По умолчанию                             : Да
    Принудительно                            : Нет

    Аудио #2
    Идентификатор                            : 3
    Формат                                   : AC-3
    Формат/Информация                        : Audio Coding 3
    Идентификатор кодека                     : A_AC3
    Продолжительность                        : 1 ч. 24 м.
    Вид битрейта                             : Постоянный
    Битрейт                                  : 192 Кбит/сек
    Каналы                                   : 1 канал
    Расположение каналов                     : Front: C
    Частота                                  : 48,0 КГц
    Частота кадров                           : 31,250 кадров/сек (1536 SPF)
    Битовая глубина                          : 16 бит
    Метод сжатия                             : С потерями
    Размер потока                            : 117 Мбайт (1%)
    Заголовок                                : AVO | В. Дохалов
    Язык                                     : Russian
    По умолчанию                             : Нет
    Принудительно                            : Нет

    Аудио #3
    Идентификатор                            : 4
    Формат                                   : AC-3
    Формат/Информация                        : Audio Coding 3
    Идентификатор кодека                     : A_AC3
    Продолжительность                        : 1 ч. 24 м.
    Вид битрейта                             : Постоянный
    Битрейт                                  : 192 Кбит/сек
    Каналы                                   : 1 канал
    Расположение каналов                     : Front: C
    Частота                                  : 48,0 КГц
    Частота кадров                           : 31,250 кадров/сек (1536 SPF)
    Битовая глубина                          : 16 бит
    Метод сжатия                             : С потерями
    Размер потока                            : 117 Мбайт (1%)
    Заголовок                                : AVO | А. Дольский
    Язык                                     : Russian
    По умолчанию                             : Нет
    Принудительно                            : Нет

    Аудио #4
    Идентификатор                            : 5
    Формат                                   : AC-3
    Формат/Информация                        : Audio Coding 3
    Идентификатор кодека                     : A_AC3
    Продолжительность                        : 1 ч. 24 м.
    Вид битрейта                             : Постоянный
    Битрейт                                  : 192 Кбит/сек
    Каналы                                   : 1 канал
    Расположение каналов                     : Front: C
    Частота                                  : 48,0 КГц
    Частота кадров                           : 31,250 кадров/сек (1536 SPF)
    Битовая глубина                          : 16 бит
    Метод сжатия                             : С потерями
    Размер потока                            : 117 Мбайт (1%)
    Заголовок                                : Original
    Язык                                     : English
    По умолчанию                             : Нет
    Принудительно                            : Нет

    Аудио #5
    Идентификатор                            : 6
    Формат                                   : AC-3
    Формат/Информация                        : Audio Coding 3
    Идентификатор кодека                     : A_AC3
    Продолжительность                        : 1 ч. 24 м.
    Вид битрейта                             : Постоянный
    Битрейт                                  : 192 Кбит/сек
    Каналы                                   : 2 канала
    Расположение каналов                     : Front: L R
    Частота                                  : 48,0 КГц
    Частота кадров                           : 31,250 кадров/сек (1536 SPF)
    Битовая глубина                          : 16 бит
    Метод сжатия                             : С потерями
    Размер потока                            : 117 Мбайт (1%)
    Заголовок                                : DUB
    Язык                                     : French
    По умолчанию                             : Нет
    Принудительно                            : Нет

    Текст #1
    Идентификатор                            : 7
    Формат                                   : UTF-8
    Идентификатор кодека                     : S_TEXT/UTF8
    Идентификатор кодека/Информация          : UTF-8 Plain Text
    Язык                                     : English
    По умолчанию                             : Нет
    Принудительно                            : Нет

    Текст #2
    Идентификатор                            : 8
    Формат                                   : UTF-8
    Идентификатор кодека                     : S_TEXT/UTF8
    Идентификатор кодека/Информация          : UTF-8 Plain Text
    Заголовок                                : SDH
    Язык                                     : English
    По умолчанию                             : Нет
    Принудительно                            : Нет

    Меню
    00:00:00.000                             : en:01. Credits
    00:03:19.467                             : en:02. Mewsette
    00:05:24.042                             : en:03. Target: Mouse
    00:08:43.741                             : en:04. Take My Hand, Paree
    00:13:30.328                             : en:05. Mademoiselle Feline
    00:17:40.744                             : en:06. The Road To Paris
    00:20:41.759                             : en:07. Roses Red, Violets Blue
    00:23:08.355                             : en:08. Meowrice
    00:25:13.363                             : en:09. Hangers-on
    00:27:25.662                             : en:10. Sister Dearest
    00:29:18.441                             : en:11. The Money Cat
    00:32:34.304                             : en:12. Doing The Town
    00:37:03.573                             : en:13. The Horse Won"t Talk
    00:40:56.756                             : en:14. Cats For A Fee
    00:44:33.189                             : en:15. Bubbles
    00:48:40.936                             : en:16. Shanghaied
    00:50:53.235                             : en:17. Little Drops Of Rain
    00:54:25.614                             : en:18. Portraits Of Mewsette
    00:58:58.219                             : en:19. Paris...or Pittsburgh
    01:03:30.441                             : en:20. Escape
    01:08:34.962                             : en:21. Klondike Cats
    01:10:51.599                             : en:22. Paris Is A Lonely Town
    01:14:57.177                             : en:23. On Her Tail
    01:18:19.246                             : en:24. Meowrice The Mouse
    01:21:12.753                             : en:25. Surprise Package
    01:23:11.171                             : en:26. Mewsette RepriseСвернуть


    Дополнительная информация
    • Исходник видео WEB-DL Amazon.Свернуть


    Сборка:[img]http://i1.imageban.ru/out/2018/02/13/db08a675822da337df05f97bda2ce544.gif[/img] [img]http://i3.imageban.ru/out/2018/07/23/276881ff853d23c7f0c2335cfae4252f.png[/img]
    Похожие раздачи Искать похожие
    Инструкция по скачиванию
     1  Качаем uTorrent версии 2.0 и выше
     2  После установки, жмем выше под постером на ссылку Скачать [MediaGet] или Скачать .torrent
     3  Открываем скачанный файл через соответствующий клиент: MediaGet или uTorrent
     4  Ждем пока подключатся участники
     5  Качаем
    Комментарии о  Веселый Париж / Gay Purr-ee | WEB-DL 1080p 
    Ближайшее в кино
    Вверх