• Игры для PS4
  • Игры для PS3
  • Игры для XBOX360
  • Игры для PC
  • Игры для PS2
  • Игры для PSP
  • Для телефонов
  • Музыка
  • Книги / Журналы
  • Обои
  • Опрос
    Откуда Вы о нас узнали?
      0
    • От знакомых2,1,false,300,full
    • Из социальных сетей2,2,false,300,full
    • Из поисковых систем2,3,false,300,full
    • Другое2,4,false,300,full
    Статистика
    Всего онлайн -
    Гостей -
    Пользователей -
    Короли трекера
    
    Благодарности () Закрыть
    Волны черного моря

    Год выпуска: 1975
    Жанр:  Приключения, экранизация
    Продолжительность: 01:07:36 + 01:05:49 + 01:03:04 + 00:58:08 + 01:14:08 + 01:13:39 + 01:03:33 + 01:12:46
    Перевод: Не требуется

    Режиссер: Артур Войтецкий, Олег Гойда, Вячеслав Криштофович
    В ролях: Вадим Кузнецов, Эдуард Купоросов, Виталик Агарков, Олег Табаков, Евгений Леонов-Гладышев, Владимир Волков,
    Степан Хацкевич, Иван Миколайчук, Алексей Петренко, Эрнст Романов, Ада Роговцева, Сергей Никоненко, Юрий Саранцев,
    Наталья Наум, Евгений Весник, Галина Волчек, Федор Панасенко, Тамара Трач, Галина Федотова, Сергей Подгорный, Ирина Бразговка,
    И. Латта, Александр Лазарев (старший), Тамара Невская, Лилия Гурова, Анатолий Адоскин, Сергей Иванов, Татьяна Зарицкая,
    Виталий Дорошенко, Виктор Маляревич, Николай Мерзликин, Алексей Чернов, Маргарита Кошелева, Богдан Ступка, Светлана Кондратова, Таня Надемская

    Описание: По мотивам трех романов тетралогии "Волны Черного моря" Валентина Катаева: "Белеет парус одинокий", "Зимний ветер", "Катакомбы". 8-мь серий.
    Киностудия им. Довженко, ТО "Луч", 1975-76 гг.
    Главными героями фильма стали одесские мальчишки - гимназист Петя Бачей и маленький сын рыбака Гаврик Черноиваненко,
    отчаянно смелый, энергичный, предприимчивый, находчивый. Два юных героя невольно оказываются в центре событий, происходящих в стране в начале двадцатого века
    – на их глазах вершится история грядущего Октябрьского переворота.
    Рядом с ними персонажи взрослых: матрос с броненосца "Потемкин" Родион Жуков, отец Пети - учитель Василий Петрович Бачей , торговка с привоза мадам Стороженко, дедушка Гаврика.
    И, конечно, сама Одесса и море. Потом ребята вырастут, пройдут через революцию и гражданскую войну, а в годы Великой Отечественной станут подпольщиками в оккупированной Одессе...



    Кодек: х264
    Качество: DVDRip-AVC
    Видео: MPEG-4 AVC, 2000-2599 Кбит/с, 688х572@734x572, 690х572@736x572, 692х572@738x572, 25 fps,
    Аудио: АС3, 2 сh, 256 Кбит/с

    Содержание

    Волны черного моря
    1-4 серии Белеет парус одинокий
    5-6 серии Зимний ветер
    7-8 серии КатакомбыСвернуть


    Скриншоты Белеет парус одинокий
    [screen]http://img15.lostpic.net/2019/01/08/c0ac7732b4de3cca4c40c2b4ac340f4a.png[/screen][screen]http://img15.lostpic.net/2019/01/08/6d48747c815710022ac2121d2ca05598.png[/screen][screen]http://img15.lostpic.net/2019/01/08/d632d0ff0e0529305bae1e5f560bd108.png[/screen]
    [screen]http://img15.lostpic.net/2019/01/08/a23bd76e79d887326a6ef5edad5895b7.png[/screen][screen]http://img15.lostpic.net/2019/01/08/2a4e2c10f96535cfeaec44d5e62333ef.png[/screen][screen]http://img15.lostpic.net/2019/01/08/72d9343ccb2771c10a0645e3d8cce502.png[/screen]   Свернуть


    Инфо файл

    x264 [info]: frame I:533   Avg QP:17.27  size: 64128
    x264 [info]: frame P:26369 Avg QP:19.88  size: 27871
    x264 [info]: frame B:74499 Avg QP:21.49  size:  6693

    Общее
    Уникальный идентификатор                 : 220243854293835936173375062404604088720 (0xA5B16C644816FBF1AB34489C559BD190)
    Полное имя                               : J:сссрВолны черного моря 1975_DVDRip-AVC_KORSARБелеет парус одинокий 1 Серия.mkv
    Формат                                   : Matroska
    Версия формата                           : Version 2
    Размер файла                             : 1,30 Гбайт
    Продолжительность                        : 1 ч. 7 м.
    Общий поток                              : 2758 Кбит/сек
    Дата кодирования                         : UTC 2019-01-08 05:20:14
    Программа кодирования                    : mkvmerge v5.8.0 ("No Sleep / Pillow") built on Sep  2 2012 15:37:04
    Библиотека кодирования                   : libebml v1.2.3 + libmatroska v1.3.0

    Видео
    Идентификатор                            : 1
    Формат                                   : AVC
    Формат/Информация                        : Advanced Video Codec
    Профиль формата                          : High@L4.1
    Настройки формата                        : CABAC / 15 Ref Frames
    Параметр CABAC формата                   : Да
    Параметр RefFrames формата               : 15 кадров
    Идентификатор кодека                     : V_MPEG4/ISO/AVC
    Продолжительность                        : 1 ч. 7 м.
    Битрейт                                  : 2500 Кбит/сек
    Ширина                                   : 692 пикселя
    Высота                                   : 572 пикселя
    Соотношение сторон                       : 1,290
    Режим частоты кадров                     : Постоянный
    Частота кадров                           : 25,000 кадров/сек
    Цветовое пространство                    : YUV
    Субдискретизация насыщенности            : 4:2:0
    Битовая глубина                          : 8 бит
    Тип развёртки                            : Прогрессивная
    Бит/(Пиксели*Кадры)                      : 0.253
    Размер потока                            : 1,16 Гбайт (89%)
    Библиотека кодирования                   : x264 core 152 r2851kMod ba24899
    Настройки программы                      : cabac=1 / ref=15 / deblock=1:-2:-1 / analyse=0x3:0x133 / me=umh / subme=11 / psy=1 / fade_compensate=0.00 / psy_rd=1.05:0.06 / mixed_ref=1 / me_range=48 / chroma_me=1 / trellis=2 / 8x8dct=1 / cqm=0 / deadzone=21,11 / fast_pskip=0 / chroma_qp_offset=-3 / threads=12 / lookahead_threads=3 / sliced_threads=0 / nr=0 / decimate=0 / interlaced=0 / bluray_compat=0 / constrained_intra=0 / bframes=12 / b_pyramid=2 / b_adapt=2 / b_bias=0 / direct=3 / weightb=1 / open_gop=0 / weightp=2 / keyint=250 / keyint_min=25 / scenecut=40 / intra_refresh=0 / rc_lookahead=40 / rc=2pass / mbtree=0 / bitrate=2500 / ratetol=1.0 / qcomp=0.60 / qpmin=0 / qpmax=39 / qpstep=4 / cplxblur=20.0 / qblur=0.5 / vbv_maxrate=50000 / vbv_bufsize=62500 / nal_hrd=none / filler=0 / ip_ratio=1.25 / pb_ratio=1.30 / aq=1:0.90
    Язык                                     : English
    Default                                  : Да
    Forced                                   : Нет
    Цветовой диапазон                        : Limited
    Основные цвета                           : BT.601 PAL
    Характеристики трансфера                 : BT.470 System B, BT.470 System G
    Коэффициенты матрицы                     : BT.470 System B, BT.470 System G

    Аудио
    Идентификатор                            : 2
    Формат                                   : AC-3
    Формат/Информация                        : Audio Coding 3
    Параметр Endianness формата              : Big
    Идентификатор кодека                     : A_AC3
    Продолжительность                        : 1 ч. 7 м.
    Вид битрейта                             : Постоянный
    Битрейт                                  : 256 Кбит/сек
    Каналы                                   : 2 канала
    Расположение каналов                     : Front: L R
    Частота                                  : 48,0 КГц
    Частота кадров                           : 31,250 кадров/сек (1536 SPF)
    Битовая глубина                          : 16 бит
    Метод сжатия                             : С потерями
    Размер потока                            : 124 Мбайт (9%)
    Язык                                     : Russian
    Default                                  : Да
    Forced                                   : Нет

    Свернуть


    Скриншоты Зимний ветер
    [screen]http://img15.lostpic.net/2019/01/09/daffe6263828eefe4b62a6b5be754cf4.png[/screen][screen]http://img15.lostpic.net/2019/01/09/38f9e52f740bcdba84da2c87548c9e5d.png[/screen][screen]http://img15.lostpic.net/2019/01/09/985f896958874b053a22558df05ccd4c.png[/screen]
    [screen]http://img15.lostpic.net/2019/01/10/be8fcc44550e9b35be3be7d70eaeba7d.png[/screen][screen]http://img15.lostpic.net/2019/01/10/908b5987e6cc7fcb7ab20c7d43092f4c.png[/screen][screen]http://img15.lostpic.net/2019/01/10/20cf326cecc3e00cb4d61d5beaaf3ea3.png[/screen]   Свернуть


    Инфо файл

    x264 [info]: frame I:577   Avg QP:16.44  size: 73859
    x264 [info]: frame P:27273 Avg QP:18.90  size: 32442
    x264 [info]: frame B:83364 Avg QP:20.34  size:  6216

    Общее
    Уникальный идентификатор                 : 193916058806291059024540427459839146575 (0x91E2DFDAFD38C657B6ED6D2645D43A4F)
    Полное имя                               : J:сссрВолны черного моря 1975_DVDRip-AVC_KORSARЗимний ветер 5 серия.mkv
    Формат                                   : Matroska
    Версия формата                           : Version 2
    Размер файла                             : 1,48 Гбайт
    Продолжительность                        : 1 ч. 14 м.
    Общий поток                              : 2857 Кбит/сек
    Дата кодирования                         : UTC 2019-01-09 18:21:18
    Программа кодирования                    : mkvmerge v5.8.0 ("No Sleep / Pillow") built on Sep  2 2012 15:37:04
    Библиотека кодирования                   : libebml v1.2.3 + libmatroska v1.3.0

    Видео
    Идентификатор                            : 1
    Формат                                   : AVC
    Формат/Информация                        : Advanced Video Codec
    Профиль формата                          : High@L4.1
    Настройки формата                        : CABAC / 15 Ref Frames
    Параметр CABAC формата                   : Да
    Параметр RefFrames формата               : 15 кадров
    Идентификатор кодека                     : V_MPEG4/ISO/AVC
    Продолжительность                        : 1 ч. 14 м.
    Битрейт                                  : 2599 Кбит/сек
    Ширина                                   : 690 пикселей
    Высота                                   : 572 пикселя
    Соотношение сторон                       : 1,287
    Режим частоты кадров                     : Постоянный
    Частота кадров                           : 25,000 кадров/сек
    Цветовое пространство                    : YUV
    Субдискретизация насыщенности            : 4:2:0
    Битовая глубина                          : 8 бит
    Тип развёртки                            : Прогрессивная
    Бит/(Пиксели*Кадры)                      : 0.263
    Размер потока                            : 1,32 Гбайт (89%)
    Библиотека кодирования                   : x264 core 152 r2851kMod ba24899
    Настройки программы                      : cabac=1 / ref=15 / deblock=1:-2:-1 / analyse=0x3:0x133 / me=umh / subme=11 / psy=1 / fade_compensate=0.00 / psy_rd=1.05:0.12 / mixed_ref=1 / me_range=48 / chroma_me=1 / trellis=2 / 8x8dct=1 / cqm=0 / deadzone=21,11 / fast_pskip=0 / chroma_qp_offset=-3 / threads=12 / lookahead_threads=3 / sliced_threads=0 / nr=0 / decimate=0 / interlaced=0 / bluray_compat=0 / constrained_intra=0 / bframes=12 / b_pyramid=2 / b_adapt=2 / b_bias=0 / direct=3 / weightb=1 / open_gop=0 / weightp=2 / keyint=250 / keyint_min=25 / scenecut=40 / intra_refresh=0 / rc_lookahead=40 / rc=2pass / mbtree=0 / bitrate=2599 / ratetol=1.0 / qcomp=0.60 / qpmin=0 / qpmax=39 / qpstep=4 / cplxblur=20.0 / qblur=0.5 / vbv_maxrate=50000 / vbv_bufsize=62500 / nal_hrd=none / filler=0 / ip_ratio=1.25 / pb_ratio=1.30 / aq=1:1.00
    Язык                                     : English
    Default                                  : Да
    Forced                                   : Нет
    Цветовой диапазон                        : Limited
    Основные цвета                           : BT.601 PAL
    Характеристики трансфера                 : BT.470 System B, BT.470 System G
    Коэффициенты матрицы                     : BT.470 System B, BT.470 System G

    Аудио
    Идентификатор                            : 2
    Формат                                   : AC-3
    Формат/Информация                        : Audio Coding 3
    Параметр Endianness формата              : Big
    Идентификатор кодека                     : A_AC3
    Продолжительность                        : 1 ч. 14 м.
    Вид битрейта                             : Постоянный
    Битрейт                                  : 256 Кбит/сек
    Каналы                                   : 2 канала
    Расположение каналов                     : Front: L R
    Частота                                  : 48,0 КГц
    Частота кадров                           : 31,250 кадров/сек (1536 SPF)
    Битовая глубина                          : 16 бит
    Метод сжатия                             : С потерями
    Размер потока                            : 136 Мбайт (9%)
    Язык                                     : Russian
    Default                                  : Да
    Forced                                   : Нет

    Свернуть


    Скриншоты Катакомбы
    [screen]http://img15.lostpic.net/2019/01/10/eacfa6551261baf85e894d7564ecebd6.png[/screen][screen]http://img15.lostpic.net/2019/01/10/5e707ce974de1915283f4dc544719b76.png[/screen][screen]http://img15.lostpic.net/2019/01/10/95c4167477d53f6a65bf77e7588904ba.png[/screen]
    [screen]http://img15.lostpic.net/2019/01/10/40d345f5c04cfc66ee71783103d33bd6.png[/screen][screen]http://img15.lostpic.net/2019/01/10/25a7f2dd0fc1e678a403301de9e3c9dd.png[/screen][screen]http://img15.lostpic.net/2019/01/10/aeb8943983c771666f8d2525a504ec7b.png[/screen]  Свернуть


    Инфо файл

    x264 [info]: frame I:491   Avg QP:14.97  size: 62577
    x264 [info]: frame P:20789 Avg QP:17.92  size: 27568
    x264 [info]: frame B:74061 Avg QP:19.79  size:  4722

    Общее
    Уникальный идентификатор                 : 187188863400346113304315095736824846692 (0x8CD34383AB2B5226B2F188A11D0F5964)
    Полное имя                               : J:сссрВолны черного моря 1975_DVDRip-AVC_KORSARКатакомбы 7 серия.mkv
    Формат                                   : Matroska
    Версия формата                           : Version 2
    Размер файла                             : 1,00 Гбайт
    Продолжительность                        : 1 ч. 3 м.
    Общий поток                              : 2258 Кбит/сек
    Дата кодирования                         : UTC 2019-01-10 07:58:08
    Программа кодирования                    : mkvmerge v5.8.0 ("No Sleep / Pillow") built on Sep  2 2012 15:37:04
    Библиотека кодирования                   : libebml v1.2.3 + libmatroska v1.3.0

    Видео
    Идентификатор                            : 1
    Формат                                   : AVC
    Формат/Информация                        : Advanced Video Codec
    Профиль формата                          : High@L4.1
    Настройки формата                        : CABAC / 15 Ref Frames
    Параметр CABAC формата                   : Да
    Параметр RefFrames формата               : 15 кадров
    Идентификатор кодека                     : V_MPEG4/ISO/AVC
    Продолжительность                        : 1 ч. 3 м.
    Битрейт                                  : 2000 Кбит/сек
    Ширина                                   : 690 пикселей
    Высота                                   : 572 пикселя
    Соотношение сторон                       : 1,287
    Режим частоты кадров                     : Постоянный
    Частота кадров                           : 25,000 кадров/сек
    Цветовое пространство                    : YUV
    Субдискретизация насыщенности            : 4:2:0
    Битовая глубина                          : 8 бит
    Тип развёртки                            : Прогрессивная
    Бит/(Пиксели*Кадры)                      : 0.203
    Размер потока                            : 890 Мбайт (87%)
    Библиотека кодирования                   : x264 core 152 r2851kMod ba24899
    Настройки программы                      : cabac=1 / ref=15 / deblock=1:-2:-1 / analyse=0x3:0x133 / me=umh / subme=11 / psy=1 / fade_compensate=0.00 / psy_rd=1.05:0.00 / mixed_ref=1 / me_range=48 / chroma_me=1 / trellis=2 / 8x8dct=1 / cqm=0 / deadzone=21,11 / fast_pskip=0 / chroma_qp_offset=-2 / threads=12 / lookahead_threads=3 / sliced_threads=0 / nr=0 / decimate=0 / interlaced=0 / bluray_compat=0 / constrained_intra=0 / bframes=10 / b_pyramid=2 / b_adapt=2 / b_bias=0 / direct=3 / weightb=1 / open_gop=0 / weightp=2 / keyint=250 / keyint_min=25 / scenecut=40 / intra_refresh=0 / rc_lookahead=40 / rc=2pass / mbtree=0 / bitrate=2000 / ratetol=1.0 / qcomp=0.60 / qpmin=0 / qpmax=39 / qpstep=4 / cplxblur=20.0 / qblur=0.5 / vbv_maxrate=50000 / vbv_bufsize=62500 / nal_hrd=none / filler=0 / ip_ratio=1.25 / pb_ratio=1.30 / aq=1:0.90
    Язык                                     : English
    Default                                  : Да
    Forced                                   : Нет
    Цветовой диапазон                        : Limited
    Основные цвета                           : BT.601 PAL
    Характеристики трансфера                 : BT.470 System B, BT.470 System G
    Коэффициенты матрицы                     : BT.470 System B, BT.470 System G

    Аудио
    Идентификатор                            : 2
    Формат                                   : AC-3
    Формат/Информация                        : Audio Coding 3
    Параметр Endianness формата              : Big
    Идентификатор кодека                     : A_AC3
    Продолжительность                        : 1 ч. 3 м.
    Вид битрейта                             : Постоянный
    Битрейт                                  : 256 Кбит/сек
    Каналы                                   : 2 канала
    Расположение каналов                     : Front: L R
    Частота                                  : 48,0 КГц
    Частота кадров                           : 31,250 кадров/сек (1536 SPF)
    Битовая глубина                          : 16 бит
    Метод сжатия                             : С потерями
    Размер потока                            : 116 Мбайт (11%)
    Язык                                     : Russian
    Default                                  : Да
    Forced                                   : Нет

    Свернуть


    [img]https://i2.imageban.ru/out/2018/12/06/a170182fef151ffd70b91e4cc8e7f4dc.gif[/img] [img]https://i5.imageban.ru/out/2018/12/06/028cbda372e272916502fa6d9a36818c.png[/img]
    Похожие раздачи Искать похожие
    Инструкция по скачиванию
     1  Качаем uTorrent версии 2.0 и выше
     2  После установки, жмем выше под постером на ссылку Скачать [MediaGet] или Скачать .torrent
     3  Открываем скачанный файл через соответствующий клиент: MediaGet или uTorrent
     4  Ждем пока подключатся участники
     5  Качаем
    Комментарии о  Волны черного моря [Серии 01-08 из 08] | DVDRip-AVC 
    Ближайшее в кино
    Вверх