• Игры для PS4
  • Игры для PS3
  • Игры для XBOX360
  • Игры для PC
  • Игры для PS2
  • Игры для PSP
  • Для телефонов
  • Музыка
  • Книги / Журналы
  • Обои
  • Опрос
    Удобен ли сайт в использовании?
      0
    • Очень удобен, все понятно1,1,false,300,full
    • Удобен1,2,false,300,full
    • Средне1,3,false,300,full
    • Неудобен, трудно ориентироваться1,4,false,300,full
    • Совсем неудобен1,5,false,300,full
    Статистика
    Всего онлайн -
    Гостей -
    Пользователей -
    Короли трекера
    
    Благодарности () Закрыть
    Название: Один поцелуй
    Оригинальное название: Un Bacio (One Kiss)
    Год выпуска: 2016
    Жанр:  Драма
    Выпущено: Италия, Friuli Venezia Giulia Film Commission, Indigo Film, Lucky Red, Rai Cinema, Titanus
    Режиссер: Иван Котронео
    В ролях: Рима Грилло Рицбергер, Валентина Романи, Леонардо Паццаль, Томаш Трабакки, Сузи Лауде, Джиорджио Маркези, Симонетта Сольдер, Серджио Романо, Лаура Мацци

    О фильме: История трёх друзей-подростков, которых не принимают их сверстники. Фильм о взрослении и стремлении к счастью, о запугивании и гомофобии. О моделях поведения, принятых в обществе, которые ограничивают людей — особенно когда они молоды и хотят быть счастливыми.



    Техданные
    Качество: WEBRip-AVC
    Видео: MPEG-4 AVC, 1 297 Kb/s, 720x304, 25.000 FPS
    Аудио: AAC, 2 ch, 192 Кбит/с
    Продолжительность: 01:43:08
    Перевод: Любительский двухголосый закадровый (LakeFilms)
    Присутствует реклама!



    MI
    General
    Unique ID                   : 265723535113072241329924014732720860493 (0xC7E87DC72A4B0DF804655DBB1B31ED4D)
    Complete name               : D:One.Kiss.2016.WEBRip.SD.WEBRip.LakeFilms.mkv
    Format                      : Matroska
    Format version              : Version 4
    File size                   : 1.07 GiB
    Duration                    : 1 h 43 min
    Overall bit rate            : 1 489 kb/s
    Encoded date                : UTC 2019-01-09 11:43:14
    Writing application         : mkvmerge v29.0.0 ("Like It Or Not") 64-bit
    Writing library             : libebml v1.3.6 + libmatroska v1.4.9

    Video
    ID                          : 1
    Format                      : AVC
    Format/Info                 : Advanced Video Codec
    Format profile              : Main@L3.1
    Format settings             : CABAC / 4 Ref Frames
    Format settings, CABAC      : Yes
    Format settings, ReFrames   : 4 frames
    Codec ID                    : V_MPEG4/ISO/AVC
    Duration                    : 1 h 43 min
    Bit rate                    : 1 297 kb/s
    Width                       : 720 pixels
    Height                      : 304 pixels
    Display aspect ratio        : 2.35:1
    Original display aspect rat : 2.35:1
    Frame rate mode             : Constant
    Frame rate                  : 25.000 FPS
    Standard                    : PAL
    Color space                 : YUV
    Chroma subsampling          : 4:2:0
    Bit depth                   : 8 bits
    Scan type                   : Progressive
    Bits/(Pixel*Frame)          : 0.237
    Stream size                 : 957 MiB (87%)
    Language                    : English
    Default                     : Yes
    Forced                      : No
    Color range                 : Limited
    Color primaries             : BT.601 NTSC
    Transfer characteristics    : BT.601
    Matrix coefficients         : BT.601

    Audio
    ID                          : 2
    Format                      : AAC LC
    Format/Info                 : Advanced Audio Codec Low Complexity
    Codec ID                    : A_AAC-2
    Duration                    : 1 h 43 min
    Bit rate                    : 192 kb/s
    Channel(s)                  : 2 channels
    Channel layout              : L R
    Sampling rate               : 48.0 kHz
    Frame rate                  : 46.875 FPS (1024 SPF)
    Compression mode            : Lossy
    Stream size                 : 140 MiB (13%)
    Language                    : English
    Default                     : Yes
    Forced                      : No
    Свернуть
    Похожие раздачи Искать похожие
    Инструкция по скачиванию
     1  Качаем uTorrent версии 2.0 и выше
     2  После установки, жмем выше под постером на ссылку Скачать [MediaGet] или Скачать .torrent
     3  Открываем скачанный файл через соответствующий клиент: MediaGet или uTorrent
     4  Ждем пока подключатся участники
     5  Качаем
    Комментарии о  Один поцелуй / One Kiss / Un Bacio | WEBRip-AVC 
    Ближайшее в кино
    Вверх