• Игры для PS4
  • Игры для PS3
  • Игры для XBOX360
  • Игры для PC
  • Игры для PS2
  • Игры для PSP
  • Для телефонов
  • Музыка
  • Книги / Журналы
  • Обои
  • Опрос
    Удобен ли сайт в использовании?
      0
    • Очень удобен, все понятно1,1,false,300,full
    • Удобен1,2,false,300,full
    • Средне1,3,false,300,full
    • Неудобен, трудно ориентироваться1,4,false,300,full
    • Совсем неудобен1,5,false,300,full
    Статистика
    Всего онлайн -
    Гостей -
    Пользователей -
    Короли трекера
    
    Благодарности () Закрыть
    Информация о фильме
    Название: Монстры на каникулах 3: Море зовёт
    Оригинальное название: Hotel Transylvania 3: Summer Vacation
    Год выхода: 2018
    Жанр: мультфильм, фэнтези, комедия, приключения, семейный
    Режиссер: Генндий Тартаковский
    Роли озвучивали: Адам Сэндлер, Энди Сэмберг, Селена Гомес, Кевин Джеймс, Фрэн Дрешер, Стив Бушеми, Молли Шеннон, Дэвид Спейд, Кигэн-Майкл Ки, Джим Гэффиган

    О фильме:
    На этот раз Дракула вместе со своими друзьями отправляется в круиз на шикарном лайнере. Развлечения там на любой вкус: от монстробаскетбола и экзотических экскурсий, до лунных ванн. Неожиданно Дракула влюбляется в капитана корабля — загадочную и прекрасную Эрику, и его дочка Мэвис понимает, что поездка может превратиться в кошмар: ведь Эрика хранит ужасный секрет, который ставит под угрозу существование всех монстров!



    Страна: США
    Студия: Columbia Pictures, Media Rights Capital, Sony  Pictures Animation
    Продолжительность: 93 мин. / 01:33
    Перевод: профессиональный (дублированный) лицензия

    Файл
    Кодек: MPEG2
    Качество: DVD5
    Видео: PAL 16:9 (720x576@1024x576) VBR 2991 Kbps, 25.000 fps
    Аудио 1: Dolby AC3, 6 ch, 48.0 KHz, 448 Kbps (английский)
    Аудио 2: Dolby AC3, 6 ch, 48.0 KHz, 448 Kbps (казахский)
    Аудио 3: Dolby AC3, 6 ch, 48.0 KHz, 384 Kbps (эстонский)
    Аудио 4: Dolby AC3, 6 ch, 48.0 KHz, 384 Kbps (латышский)
    Аудио 5: Dolby AC3, 6 ch, 48.0 KHz, 384 Kbps (литовский)
    Аудио 6: Dolby AC3, 2 ch, 48.0 KHz, 192 Kbps (русский)
    Аудио 7: Dolby AC3, 2 ch, 48.0 KHz, 192 Kbps (украинский)
    Аудио 8: Dolby AC3, 2 ch, 48.0 KHz, 192 Kbps (комментарии)
    Субтитры: русские, украинские, английские, эстонские

    MediaInfo
    Общее
    Полное имя : Hotel Transylvania 3. Summer Vacation (2018) DVD5 R5VIDEO_TSVTS_01_1.VOB
    Формат : MPEG-PS
    Размер файла : 1024 Мбайт
    Продолжительность : 24 м. 59 с.
    Режим общего битрейта : Переменный
    Общий поток : 5729 Кбит/сек

    Видео
    Идентификатор : 224 (0xE0)
    Формат : MPEG Video
    Версия формата : Version 2
    Профиль формата : Main@Main
    Настройки формата : CustomMatrix / BVOP
    Параметр BVOP формата : Да
    Параметр матрицы формата : Выборочная
    Параметр GOP формата : M=3, N=15
    Структура изображения : Frame
    Продолжительность : 24 м. 59 с.
    Вид битрейта : Переменный
    Битрейт : 2991 Кбит/сек
    Максимальный битрейт : 6000 Кбит/сек
    Ширина : 720 пикселей
    Высота : 576 пикселей
    Соотношение сторон : 16:9
    Частота кадров : 25,000 кадров/сек
    Стандарт вещания : PAL
    Цветовое пространство : YUV
    Субдискретизация насыщенности : 4:2:0
    Битовая глубина : 8 бит
    Тип развёртки : Чересстрочная
    Порядок развёртки : Верхнее поле первое
    Метод сжатия : С потерями
    Бит/(Пиксели*Кадры) : 0.288
    Временной код первого кадра : 00:59:59:00
    Оригинал временного кода : Group of pictures header
    GOP, открыто/закрыто : Открыто
    GOP, открыто/закрыто на первом кадре : Закрыто
    Размер потока : 535 Мбайт (52%)

    Аудио #1
    Идентификатор : 189 (0xBD)-128 (0x80)
    Формат : AC-3
    Формат/Информация : Audio Coding 3
    Параметр Endianness формата : Big
    Режим смешивания : DVD-Video
    Продолжительность : 24 м. 59 с.
    Вид битрейта : Постоянный
    Битрейт : 448 Кбит/сек
    Каналы : 6 каналов
    Расположение каналов : Front: L C R, Side: L R, LFE
    Частота : 48,0 КГц
    Частота кадров : 31,250 кадров/сек (1536 SPF)
    Битовая глубина : 16 бит
    Метод сжатия : С потерями
    Размер потока : 80,1 Мбайт (8%)

    Аудио #2
    Идентификатор : 189 (0xBD)-129 (0x81)
    Формат : AC-3
    Формат/Информация : Audio Coding 3
    Параметр Endianness формата : Big
    Режим смешивания : DVD-Video
    Продолжительность : 24 м. 59 с.
    Вид битрейта : Постоянный
    Битрейт : 384 Кбит/сек
    Каналы : 6 каналов
    Расположение каналов : Front: L C R, Side: L R, LFE
    Частота : 48,0 КГц
    Частота кадров : 31,250 кадров/сек (1536 SPF)
    Битовая глубина : 16 бит
    Метод сжатия : С потерями
    Размер потока : 68,6 Мбайт (7%)

    Аудио #3
    Идентификатор : 189 (0xBD)-130 (0x82)
    Формат : AC-3
    Формат/Информация : Audio Coding 3
    Параметр Endianness формата : Big
    Режим смешивания : DVD-Video
    Продолжительность : 24 м. 59 с.
    Вид битрейта : Постоянный
    Битрейт : 384 Кбит/сек
    Каналы : 6 каналов
    Расположение каналов : Front: L C R, Side: L R, LFE
    Частота : 48,0 КГц
    Частота кадров : 31,250 кадров/сек (1536 SPF)
    Битовая глубина : 16 бит
    Метод сжатия : С потерями
    Размер потока : 68,6 Мбайт (7%)

    Аудио #4
    Идентификатор : 189 (0xBD)-131 (0x83)
    Формат : AC-3
    Формат/Информация : Audio Coding 3
    Параметр Endianness формата : Big
    Режим смешивания : DVD-Video
    Продолжительность : 24 м. 59 с.
    Вид битрейта : Постоянный
    Битрейт : 384 Кбит/сек
    Каналы : 6 каналов
    Расположение каналов : Front: L C R, Side: L R, LFE
    Частота : 48,0 КГц
    Частота кадров : 31,250 кадров/сек (1536 SPF)
    Битовая глубина : 16 бит
    Метод сжатия : С потерями
    Размер потока : 68,6 Мбайт (7%)

    Аудио #5
    Идентификатор : 189 (0xBD)-132 (0x84)
    Формат : AC-3
    Формат/Информация : Audio Coding 3
    Режим : Dolby Digital
    Параметр Endianness формата : Big
    Режим смешивания : DVD-Video
    Продолжительность : 24 м. 59 с.
    Вид битрейта : Постоянный
    Битрейт : 192 Кбит/сек
    Каналы : 2 канала
    Расположение каналов : Front: L R
    Частота : 48,0 КГц
    Частота кадров : 31,250 кадров/сек (1536 SPF)
    Битовая глубина : 16 бит
    Метод сжатия : С потерями
    Размер потока : 34,3 Мбайт (3%)

    Аудио #6
    Идентификатор : 189 (0xBD)-133 (0x85)
    Формат : AC-3
    Формат/Информация : Audio Coding 3
    Режим : Dolby Digital
    Параметр Endianness формата : Big
    Режим смешивания : DVD-Video
    Продолжительность : 24 м. 59 с.
    Вид битрейта : Постоянный
    Битрейт : 192 Кбит/сек
    Каналы : 2 канала
    Расположение каналов : Front: L R
    Частота : 48,0 КГц
    Частота кадров : 31,250 кадров/сек (1536 SPF)
    Битовая глубина : 16 бит
    Метод сжатия : С потерями
    Размер потока : 34,3 Мбайт (3%)

    Аудио #7
    Идентификатор : 189 (0xBD)-134 (0x86)
    Формат : AC-3
    Формат/Информация : Audio Coding 3
    Параметр Endianness формата : Big
    Режим смешивания : DVD-Video
    Продолжительность : 24 м. 59 с.
    Вид битрейта : Постоянный
    Битрейт : 448 Кбит/сек
    Каналы : 6 каналов
    Расположение каналов : Front: L C R, Side: L R, LFE
    Частота : 48,0 КГц
    Частота кадров : 31,250 кадров/сек (1536 SPF)
    Битовая глубина : 16 бит
    Метод сжатия : С потерями
    Размер потока : 80,1 Мбайт (8%)

    Аудио #8
    Идентификатор : 189 (0xBD)-135 (0x87)
    Формат : AC-3
    Формат/Информация : Audio Coding 3
    Режим : Dolby Digital
    Параметр Endianness формата : Big
    Режим смешивания : DVD-Video
    Продолжительность : 24 м. 59 с.
    Вид битрейта : Постоянный
    Битрейт : 192 Кбит/сек
    Каналы : 2 канала
    Расположение каналов : Front: L R
    Частота : 48,0 КГц
    Частота кадров : 31,250 кадров/сек (1536 SPF)
    Битовая глубина : 16 бит
    Метод сжатия : С потерями
    Размер потока : 34,3 Мбайт (3%)

    Текст #1
    Идентификатор : 189 (0xBD)-32 (0x20)
    Формат : RLE
    Формат/Информация : Run-length encoding
    Режим смешивания : DVD-Video

    Текст #2
    Идентификатор : 189 (0xBD)-33 (0x21)
    Формат : RLE
    Формат/Информация : Run-length encoding
    Режим смешивания : DVD-Video

    Текст #3
    Идентификатор : 189 (0xBD)-34 (0x22)
    Формат : RLE
    Формат/Информация : Run-length encoding
    Режим смешивания : DVD-Video

    Текст #4
    Идентификатор : 189 (0xBD)-35 (0x23)
    Формат : RLE
    Формат/Информация : Run-length encoding
    Режим смешивания : DVD-Video

    Текст #5
    Идентификатор : 189 (0xBD)-36 (0x24)
    Формат : RLE
    Формат/Информация : Run-length encoding
    Режим смешивания : DVD-Video

    МенюСвернуть


    Похожие раздачи Искать похожие
    Инструкция по скачиванию
     1  Качаем uTorrent версии 2.0 и выше
     2  После установки, жмем выше под постером на ссылку Скачать [MediaGet] или Скачать .torrent
     3  Открываем скачанный файл через соответствующий клиент: MediaGet или uTorrent
     4  Ждем пока подключатся участники
     5  Качаем
    Комментарии о  Монстры на каникулах 3: Море зовёт / Hotel Transylvania 3: Summer Vacation | DVD5 
    Ближайшее в кино
    Вверх