• Игры для PS4
  • Игры для PS3
  • Игры для XBOX360
  • Игры для PC
  • Игры для PS2
  • Игры для PSP
  • Для телефонов
  • Музыка
  • Книги / Журналы
  • Обои
  • Опрос
    Откуда Вы о нас узнали?
      0
    • От знакомых2,1,false,300,full
    • Из социальных сетей2,2,false,300,full
    • Из поисковых систем2,3,false,300,full
    • Другое2,4,false,300,full
    Статистика
    Всего онлайн -
    Гостей -
    Пользователей -
    Короли трекера
    
    Благодарности () Закрыть
    Быстрее загружает сайты Экономит интернет—трафик Меняет оформление страницы ВК Блокирует всю рекламу на сайтах Загружает торренты как µTorrent клиент Объеденяет все твои чаты из соц. сетей в один Проигрывает твою музыку не заходя во ВКонтакте
    Новый интернет-браузер
    Orbitum
    Скачать
    и многое другое... Подробности на сайте производителя
    Информация о фильме
    Название: Не возвращайся с луны
    Оригинальное название: Don"t Come Back from the Moon

    Год выхода: 2017
    Жанр: Драма
    Режиссер: Брюс Тьерри Чунг
    В ролях: Джеймс Франко, Рашида Джонс, Джеффри Уолберг, Алисса Эль Стейнэкер, Закари Артур, Хейл Лайтл, Генри Хоппер, Иеремия Но, Скотти Крэйн, Чейен Хэйнс
    О фильме:
    Все отцы в одном маленьком калифорнийском пустынном городке бросают своих детей одного за другим, оставляя после себя раздор, гнев, ярость и преступность, когда их сыновья и дочери достигают совершеннолетия.



    Страна: США, Elysium Bandini Studios, Kalamalka Productions
    Продолжительность: 01:23:04
    Перевод: Любительский (двухголосый закадровый) | HiWay Grope

    Файл
    Кодек: MPEG-4 AVC/x.264
    Качество: WEBRip 720p
    Видео: 1280x536, 23.976 fps, ~2994 kbps, 0.182 bit/pixel
    Звук:
    Аудио rus: AC3, 48 kHz, 2 ch, 192 Kbps
    Субтитры: отсутствуют

    Реклама: присутствует

    Семпл

    MediaInfo

    General
    Unique ID                                : 255359073741789219415595328059952151320 (0xC01C5E6117F2F8A71CC599A82D413B18)
    Complete name                            : D:Dont.Come.Back.From.the.Moon.2018.720p.WEBRip.HiWayGropeDont.Come.Back.From.the.Moon.2018.720p.WEBRip.HiWayGrope.mkv
    Format                                   : Matroska
    Format version                           : Version 4
    File size                                : 1.85 GiB
    Duration                                 : 1 h 23 min
    Overall bit rate mode                    : Variable
    Overall bit rate                         : 3 188 kb/s
    Encoded date                             : UTC 2019-01-30 23:56:13
    Writing application                      : mkvmerge v25.0.0 ("Prog Noir") 64-bit
    Writing library                          : libebml v1.3.6 + libmatroska v1.4.9

    Video
    ID                                       : 1
    Format                                   : AVC
    Format/Info                              : Advanced Video Codec
    Format profile                           : High@L5
    Format settings                          : CABAC / 4 Ref Frames
    Format settings, CABAC                   : Yes
    Format settings, RefFrames               : 4 frames
    Codec ID                                 : V_MPEG4/ISO/AVC
    Duration                                 : 1 h 23 min
    Bit rate mode                            : Variable
    Bit rate                                 : 2 994 kb/s
    Maximum bit rate                         : 12.0 Mb/s
    Width                                    : 1 280 pixels
    Height                                   : 536 pixels
    Display aspect ratio                     : 2.40:1
    Frame rate mode                          : Constant
    Frame rate                               : 23.976 (24000/1001) FPS
    Standard                                 : NTSC
    Color space                              : YUV
    Chroma subsampling                       : 4:2:0
    Bit depth                                : 8 bits
    Scan type                                : Progressive
    Bits/(Pixel*Frame)                       : 0.182
    Stream size                              : 1.74 GiB (94%)
    Language                                 : English
    Default                                  : Yes
    Forced                                   : No
    Color range                              : Limited
    Color primaries                          : BT.601 NTSC
    Transfer characteristics                 : BT.601
    Matrix coefficients                      : BT.601

    Audio
    ID                                       : 2
    Format                                   : AC-3
    Format/Info                              : Audio Coding 3
    Commercial name                          : Dolby Digital
    Codec ID                                 : A_AC3
    Duration                                 : 1 h 23 min
    Bit rate mode                            : Constant
    Bit rate                                 : 192 kb/s
    Channel(s)                               : 2 channels
    Channel layout                           : L R
    Sampling rate                            : 48.0 kHz
    Frame rate                               : 31.250 FPS (1536 SPF)
    Bit depth                                : 16 bits
    Compression mode                         : Lossy
    Stream size                              : 114 MiB (6%)
    Service kind                             : Complete Main
    Default                                  : Yes
    Forced                                   : No

    Свернуть


    Инструкция по скачиванию
     1  Качаем uTorrent версии 2.0 и выше
     2  После установки, жмем выше под постером на ссылку Скачать [MediaGet] или Скачать .torrent
     3  Открываем скачанный файл через соответствующий клиент: MediaGet или uTorrent
     4  Ждем пока подключатся участники
     5  Качаем
    Комментарии о  Не возвращайся с луны / Don't Come Back from the Moon | WEBRip 720p 
    Ближайшее в кино
    Вверх