• Игры для PS4
  • Игры для PS3
  • Игры для XBOX360
  • Игры для PC
  • Игры для PS2
  • Игры для PSP
  • Для телефонов
  • Музыка
  • Книги / Журналы
  • Обои
  • Опрос
    Удобен ли сайт в использовании?
      0
    • Очень удобен, все понятно1,1,false,300,full
    • Удобен1,2,false,300,full
    • Средне1,3,false,300,full
    • Неудобен, трудно ориентироваться1,4,false,300,full
    • Совсем неудобен1,5,false,300,full
    Статистика
    Всего онлайн -
    Гостей -
    Пользователей -
    Короли трекера
    
    Благодарности () Закрыть
    Быстрее загружает сайты Экономит интернет—трафик Меняет оформление страницы ВК Блокирует всю рекламу на сайтах Загружает торренты как µTorrent клиент Объеденяет все твои чаты из соц. сетей в один Проигрывает твою музыку не заходя во ВКонтакте
    Новый интернет-браузер
    Orbitum
    Скачать
    и многое другое... Подробности на сайте производителя
    Год выпуска: 2013
    Страна: Венесуэла, США
    Производство: Venevisión
    Жанр: Романтика, мелодрама
    Серии (количество): 142
    Продолжительность: 00:45:00
    Перевод: субтитры
    Субтитры: Русские вшитые

    Режиссёр: Leonardo Padrón

    В ролях: Ана Лорена Санчес (Ana Lorena Sánchez) - Ана Лорена Ринкон
    Кристиан Мейер (Christian Meier) - Диего Лухан
    Педро Морено (Pedro Moreno) - Олегарио Перес
    Зулейка Ривера (Zuleyka Rivera) - Вивиана Роблес
    Каролина Техера (Carolina Tejera) - Тиффани Роблес
    Скарлет Грубер (Scarlet Gruber) - Мария Хосе / Мариана
    Генри Закка (Henry Zakka) - Нарцисо Лухан

    Описание: Ана Лорена Ринкон - красивая молодая девушка, живущая в Лос Анджелесе, Калифорния. На своем пути она встречает успешного владельца рекламной компании Диего Лухана, который собирается жениться на знаменитой моделе Вивиане Роблес, но у судьбы свои планы для них и эта встреча превращается в страстную историю любви.
    За несколько дней до запланированный свадьбы с Вивианой, Диего снова встречается с Аной на круизном лайнере, где она работает официанткой. С этой неожиданной встречи между ними рождается глубокая любовь, ради которой Диего решает отменить свадьбу и начать новую жизнь с Аной. Но все складывается не так как они ожидали. Вивиана, злая и жаждущая мести, подстраивает ловушку для Аны в день, когда Диего ждал её в аэропорту. Ана попадает в тюрьму на несколько месяцев, из-за ложных обвинений в контрабанде наркотиков, так и не сумев объяснить Диего, что произошло на самом деле.
    После освобождения из тюрьмы, Ана работает визажистом и снова судьба сталкивает ее с Диего Луханом. Невеста, которая наняла Ану это Вивиана, та которая сумела снова завоевать Диего посредством лжи и убедившая его в виновности Аны. При встрече Ана и Диего испытывают те же сильные чувства, что и в прошлом, но уже слишком поздно.
    Будущее обоих усложняется еще больше с внезапным появлением неизвестного сводного брата Диего, Олегарио, который влюбляется в Ану. И с этого момента начинается жесткая борьба двух братьев за Ану, в то время как обманы Вивианы начинают потихоньку раскрываться...

    Сериал в процессе перевода.

    1-20 серии по состоянию на 14.12.2016

    Сэмпл: http://multi-up.com/1049335

    Качество: SATRip
    Формат: AVI
    Видео кодек: XviD
    Аудио кодек: MP3
    Видео: XviD MPEG-4, 640*360, 1000 kbps avg, 0,2 bit/pixel
    Аудио: MPEG Layer 3, 44.100 kHz, 2 ch, 128.00 kbps avg

    Внимание! Раздача ведётся путём добавления новых серий
    Скриншоты
    [screen]https://i72.fastpic.ru/big/2015/0519/94/ec7acb3526f4fec0dfcca00abe5ca694.png[/screen]

    [screen]https://i72.fastpic.ru/big/2015/0519/22/fcf45c37e9445d62658be0f5bb955922.png[/screen]

    [screen]https://i72.fastpic.ru/big/2015/0519/8e/9a702d8dfccc3b3794de552565af6a8e.png[/screen]

    [screen]https://i72.fastpic.ru/big/2015/0519/2f/2d43fa241f5db52b9c9e6e220d3f902f.png[/screen]
    Свернуть

    MI
    General
    Complete name : D:\CositaLinda\Cosita_Linda_01_rus.avi
    Format : AVI
    Format/Info : Audio Video Interleave
    File size : 361 МБ
    Duration : 44mn 25s
    Overall bit rate : 1008 Kbps
    Writing application : VirtualDubMod 1.5.10.2 (build 2542/release)
    Writing library : VirtualDubMod build 2542/release

    Video
    ID : 0
    Format : MPEG-4 Visual
    Format profile : Advanced Simple@L5
    Format settings, BVOP : 2
    Format settings, QPel : No
    Format settings, GMC : No warppoints
    Format settings, Matrix : Default (H.263)
    Muxing mode : Packed bitstream
    Codec ID : XVID
    Codec ID/Hint : XviD
    Duration : 44mn 25s
    Bit rate : 1008 Kbps
    Width : 640 pixels
    Height : 360 pixels
    Display aspect ratio : 16:9
    Frame rate : 25.000 fps
    Color space : YUV
    Chroma subsampling : 4:2:0
    Bit depth : 8 bits
    Scan type : Progressive
    Compression mode : Lossy
    Bits/(Pixel*Frame) : 0.151
    Stream size : 361 MiB (86%)
    Writing library : XviD 64

    Audio
    ID : 1
    Format : MPEG Audio
    Format version : Version 1
    Format profile : Layer 3
    Mode : Joint stereo
    Codec ID : 55
    Codec ID/Hint : MP3
    Duration : 44mn 25s
    Bit rate mode : Constant
    Bit rate : 128 Kbps
    Channel(s) : 2 channels
    Sampling rate : 44.1 KHz
    Compression mode : Lossy
    Stream size : 34.2 MiB (13%)
    Alignment : Split accross interleaves
    Interleave, duration : 40 ms (1.00 video frame)
    Interleave, preload duration : 500 msСвернуть
    Похожие раздачи Искать похожие
    Инструкция по скачиванию
     1  Качаем uTorrent версии 2.0 и выше
     2  После установки, жмем выше под постером на ссылку Скачать [MediaGet] или Скачать .torrent
     3  Открываем скачанный файл через соответствующий клиент: MediaGet или uTorrent
     4  Ждем пока подключатся участники
     5  Качаем
    Комментарии о  Красотка / Cosita Linda [Серии 1-20 из 142] 
     user_1271, это уже зависит от тех кто озвучивает..
    user_1271

    07 февраля

    а остальные серии будут?
    user_1271

    07 февраля

    Поняла, спб
     user_1271, раздающий из Венесуэлы, следовательно у них другой часовой пояс. Скорее всего вам придется держать компьютер включенным и ночью чтобы застать его
    1
    user_1271

    07 февраля

    Где раздающий?
    Ближайшее в кино
    Вверх