• Игры для PS4
  • Игры для PS3
  • Игры для XBOX360
  • Игры для PC
  • Игры для PS2
  • Игры для PSP
  • Для телефонов
  • Музыка
  • Книги / Журналы
  • Обои
  • Опрос
    Откуда Вы о нас узнали?
      0
    • От знакомых2,1,false,300,full
    • Из социальных сетей2,2,false,300,full
    • Из поисковых систем2,3,false,300,full
    • Другое2,4,false,300,full
    Статистика
    Всего онлайн -
    Гостей -
    Пользователей -
    Короли трекера
    Благодарности () Закрыть
    Год выхода: 2007

    Жанр: Документальный, история

    Страна: Россия

    Продолжительность: 00:213:00

    Перевод: Оригинал



    Файл

    Формат: MKV

    Качество: DVDRip-AVC

    Видео: MPEG4 AVC 768 x 576, 25.000 fps, 1700 - 1893 Кбит/сек

    Звук: AC-3, 2 ch, 192 Кбит/сек

    Субтитры: Нет
    Часть 1. «Кто убил Рихарда Зорге»:
    Авторы проводят тщательный анализ документов, которые хранятся в Москве и стали доступны в последнее время, а также документов зарубежных архивов.

    Составление всей мозаики разрозненных документов и показаний дают авторам сделать неожиданный вывод - в гибели Героя Советского Союза Рихарда Зорге были заинтересованы представители советских служб.

    Режиссёр: Е.Толдонова. Сценаристы: А.Колпакиди, Е.Толдонова

    Операторы: В.Рябин. Продюсер: Ю.Смирнов

    Производство: ООО "Совинфильм". Прокатное удостоверение: № 212035806 от 07.12.2006

    Продолжительность: 52:04 Свернуть
    Часть 2. «Ленд Лиз»:
    Фильм рассказывает о некоторых драматических страницах истории Второй Мировой Войны, а именно поставках союзнического вооружения по так называемому договору ленд-лиза. Что за этим стояло? Реальная помощь или большая политическая игра?

    Режиссёр: В.Овчинников. Сценаристы: В.Овчинников, Ю.Попов Оператор: А.Корочков. Продюсер: А.Суриков

    Производство: ГП "Союзкиносервис". Прокатное удостоверение: № 21204703 от 21.03.2003

    Продолжительность: 51:39 Свернуть
    Часть 3. «Тайны германских репараций»:
    Фильм рассказывает о поставках из Германии сразу после окончания войны немецкого промышленного оборудования в виде компенсации за разрушения, причененные фашистскими захватчиками в нашей стране, и использовании этого оборудования на наших заводах

    Режиссёр: В.Овчинников. Сценарист: В.Овчинников Оператор: А.Корочков. Продюсер: А.Суриков

    Производство: ГП "Союзкиносервис". Прокатное удостоверение: № 212020805 от 28.04.2005

    Продолжительность: 51:42

    Свернуть
    Часть 4. «Остановлен под Тулой»:
    Фашистский генерал Гудериан, с легкостью взявший десятки столиц стран Европы, не смог войти в город, который, по сути дела, даже не был как следует подготовлен к обороне. Знаменитого немецкого генерала "перехитрил» В.Г. Жаворонков, 35-летний председатель впервые созданного в ходе Великой Отечественной войны Городского комитета обороны, на который Верховным главнокомандующим была возложена вся полнота ответственности за судьбу Тулы. Как он и те, кто оборонял Тулу, это сделали расскажет наш фильм.

    Режиссёр: В.Цаликов. Сценаристы: В.Карпий при участии В.Цаликова Оператор: В.Полянский. Продюсер: А.Суриков

    Производство: ГП "Союзкиносервис". Прокатное удостоверение: № 21225402 от 30.12.2002

    Продолжительность: 44:20 Свернуть
    Часть 5. «Там где мы бывали»:
    Фильм рассказывает о военных журналистах, о тех, кто все четыре года Великой Отечественной войны 41-45гг., были рядом с солдатами. В периодической печати и на Всесоюзном радио тех лет эти люди информировали страны о течении дел на фронтах, в партизанских отрядах и на втором фронте союзных войск.

    Режиссёр: Т.Гутман. Сценарист: Б.Лобков. Оператор: П.Филимонов. Продюсер: Ю.Смирнов

    Производство: ООО СОВИНФИЛЬМ". Прокатное удостоверение: № 212014305 от 17.03.2005

    Продолжительность: 26:02 Свернуть
    Часть 6. «Одной правой»:
    Фильм расскажет об одной уникальной семье живущей в Туле.

    О ее главе Герое России - Иване Анатольевиче Леонове, единственный в мире летчик летавший и воевавший без левой руки, усыновивший пятерых детей, имея двух своих...

    Режиссёр: В.Цаликов. Сценаристы: В.Карпий при участии В.Цаликова Оператор: В.Полянский. Продюсер: А.Суриков

    Производство: ГП "Союзкиносервис". Прокатное удостоверение: № 212035704 от 21.10.2004

    Продолжительность: 49:45.

    Свернуть
    MediaInfo:
    General

    Unique ID : 231032996839257672236319569520006650883 (0xADCF56305C52DE35B0457A0BB639DC03)

    Complete name : C:Downloadszagadki.tainji voinji.2007.DVDRip-AVC от -=HD-NET=-Film 1.mkv

    Format : Matroska

    Format version : Version 2

    File size : 705 MiB

    Duration : 52mn 4s

    Overall bit rate : 1 893 Kbps

    Encoded date : UTC 2013-08-02 07:43:42

    Writing application : mkvmerge v6.1.0 (‘Old Devil‘) built on Mar 4 2013 09:10:42

    Writing library : libebml v1.3.0 + libmatroska v1.4.0



    Video

    ID : 1

    Format : AVC

    Format/Info : Advanced Video Codec

    Format profile : High@L4.1

    Format settings, CABAC : Yes

    Format settings, ReFrames : 5 frames

    Codec ID : V_MPEG4/ISO/AVC

    Duration : 52mn 4s

    Bit rate : 1 700 Kbps

    Width : 768 pixels

    Height : 576 pixels

    Display aspect ratio : 4:3

    Frame rate mode : Constant

    Frame rate : 25.000 fps

    Color space : YUV

    Chroma subsampling : 4:2:0

    Bit depth : 8 bits

    Scan type : Progressive

    Bits/(Pixel*Frame) : 0.154

    Stream size : 619 MiB (88%)

    Writing library : x264 core 130 r2273 b3065e6

    Encoding settings : cabac=1 / ref=5 / deblock=1:-2:-2 / analyse=0x3:0x111 / me=umh / subme=9 / psy=1 / psy_rd=0.00:0.10 / mixed_ref=1 / me_range=32 / chroma_me=1 / trellis=2 / 8x8dct=1 / cqm=0 / deadzone=21,11 / fast_pskip=1 / chroma_qp_offset=-1 / threads=12 / lookahead_threads=1 / sliced_threads=0 / nr=0 / decimate=1 / interlaced=0 / bluray_compat=0 / constrained_intra=0 / bframes=5 / b_pyramid=2 / b_adapt=0 / b_bias=0 / direct=1 / weightb=1 / open_gop=0 / weightp=2 / keyint=250 / keyint_min=25 / scenecut=40 / intra_refresh=0 / rc_lookahead=50 / rc=2pass / mbtree=1 / bitrate=1700 / ratetol=1.0 / qcomp=0.60 / qpmin=0 / qpmax=69 / qpstep=4 / cplxblur=20.0 / qblur=0.5 / ip_ratio=1.40 / aq=1:1.00

    Default : Yes

    Forced : No



    Audio

    ID : 2

    Format : AC-3

    Format/Info : Audio Coding 3

    Mode extension : CM (complete main)

    Format settings, Endianness : Big

    Codec ID : A_AC3

    Duration : 52mn 4s

    Bit rate mode : Constant

    Bit rate : 192 Kbps

    Channel(s) : 2 channels

    Channel positions : Front: L R

    Sampling rate : 48.0 KHz

    Bit depth : 16 bits

    Compression mode : Lossy

    Stream size : 71.5 MiB (10%)

    Default : Yes

    Forced : No Свернуть
    Скриншоты


    [screen]http://s001.radikal.ru/i194/1308/39/0d461e62e16d.png[/screen]



    [screen]http://s018.radikal.ru/i506/1308/5a/4e7e285c9431.png[/screen]



    [screen]http://s019.radikal.ru/i607/1308/75/390b4392f9c3.png[/screen]



    [screen]http://s55.radikal.ru/i150/1308/0e/bfa5420f6293.png[/screen]

    Свернуть
    Похожие раздачи Искать похожие
    Инструкция по скачиванию
     1  Качаем uTorrent версии 2.0 и выше
     2  После установки, жмем выше под постером на ссылку Скачать [MediaGet] или Скачать .torrent
     3  Открываем скачанный файл через соответствующий клиент: MediaGet или uTorrent
     4  Ждем пока подключатся участники
     5  Качаем
    Комментарии о  Загадки и тайны Великой Отечественной [Серии 01-06 из 06] | DVDRip-AVC 
    Ближайшее в кино
    Вверх