• Игры для PS4
  • Игры для PS3
  • Игры для XBOX360
  • Игры для PC
  • Игры для PS2
  • Игры для PSP
  • Для телефонов
  • Музыка
  • Книги / Журналы
  • Обои
  • Опрос
    Откуда Вы о нас узнали?
      0
    • От знакомых2,1,false,300,full
    • Из социальных сетей2,2,false,300,full
    • Из поисковых систем2,3,false,300,full
    • Другое2,4,false,300,full
    Статистика
    Всего онлайн -
    Гостей -
    Пользователей -
    Короли трекера
    
    Благодарности () Закрыть
    Информация о фильме
    Название: Имена людей
    Оригинальное название: Le nom des gens / The Names of Love
    Год выхода: 2010
    Жанр:  комедия
    Режиссер: Мишель Леклерк
    В ролях: Жак Гамблен, Сара Форестье, Зинедин Суалем, Кароль Франк, Жак Буде, Мишель Моретти, Захария Гурам, Джулия Вайдис-Богард, Адриен Стокле, Камилль Гижо

    О фильме:
    Девушка по имени Байн Бенмахмуд любит свободу и придерживается оригинальных взглядов на политику. Они заключаются в том, что без всяких сомнений она спит со всеми, кто придерживается правых взглядов, чтобы сделать их своими сторонниками. До определённого момента ей всё удаётся, пока не происходит встреча с Артюром Мортеном. Ему 40 лет, он сдерживает свои эмоции и не желает подвергать себя риску. Она считает, что у него, благодаря имени, могут быть только фашистские взгляды. Но судить по имени о взглядах нельзя…

      


    Выпущено: Франция
    Продолжительность: 01:38:55
    Озвучивание:
    Профессиональное (двухголосое) [Нтв+]  / Любительское (двухголосое) [ViruseProject]

    Файл:
    Формат: MKV
    Качество: BDRip 1080p [ROUGH]
    Видео: 9566 kb/s, 1920x1040
    Аудио:
    Russian [Нтв+] / [ViruseProject]: AC3, 192 kb/s (2 ch)
    French: DTS, 1510 kb/s (2 ch)
    Субтитры: Russian [Leonid55], English
    Дополнительно: Сохранены оригинальные чаптеры как на Blu-Ray
    Размер: 7.92 GB

    Скриншоты
    [screen]http://i062.radikal.ru/1404/04/76e1b51e3f18.png[/screen]
    [screen]http://s018.radikal.ru/i522/1404/bc/32ed6e67c759.png[/screen]
    [screen]http://s018.radikal.ru/i508/1404/50/412509ee4c10.png[/screen]

    [screen]http://s017.radikal.ru/i437/1404/62/caad337f194b.png[/screen]
    [screen]http://s43.radikal.ru/i101/1404/5e/a6e8a876a6d4.png[/screen]
    Свернуть


    NFO
    Общее
    The.Names.Of.Love.2010.Blu.Ray.1080p.CINEMANIA.mkv
    Формат : Matroska
    Версия формата : Version 4 / Version 2
    Размер файла : 7,92 Гбайт
    Продолжительность : 1 ч. 38 м.
    Общий поток : 11,5 Мбит/сек
    Название фильма : Release Group CINEMANIA
    Дата кодирования : UTC 2014-04-20 06:59:32
    Программа кодирования : mkvmerge v6.9.1 ("Blue Panther") 64bit built on Apr 18 2014 18:23:38
    Библиотека кодирования : libebml v1.3.0 + libmatroska v1.4.1

    Видео
    Идентификатор : 1
    Формат : AVC
    Формат/Информация : Advanced Video Codec
    Профиль формата : High@L4.0
    Параметр CABAC формата : Да
    Параметр ReFrames формата : 4 кадра
    Идентификатор кодека : V_MPEG4/ISO/AVC
    Продолжительность : 1 ч. 38 м.
    Битрейт : 9566 Кбит/сек
    Ширина : 1920 пикселей
    Высота : 1040 пикселей
    Соотношение сторон : 1,85:1
    Режим частоты кадров : Постоянный
    Частота кадров : 25,000 кадров/сек
    Цветовое пространство : YUV
    Субдискретизация насыщенности : 4:2:0
    Битовая глубина : 8 бит
    Тип развёртки : Прогрессивная
    Бит/(Пиксели*Кадры) : 0.192
    Размер потока : 6,45 Гбайт (81%)
    Заголовок : Release Group CINEMANIA
    Библиотека кодирования : x264 core 130 r2273 b3065e6
    Настройки программы : cabac=1 / ref=4 / deblock=1:0:0 / analyse=0x3:0x133 / me=umh / subme=7 / psy=1 / psy_rd=1.00:0.00 / mixed_ref=1 / me_range=16 / chroma_me=1 / trellis=1 / 8x8dct=1 / cqm=0 / deadzone=21,11 / fast_pskip=0 / chroma_qp_offset=-2 / threads=18 / lookahead_threads=3 / sliced_threads=0 / nr=0 / decimate=1 / interlaced=0 / bluray_compat=0 / constrained_intra=0 / bframes=3 / b_pyramid=2 / b_adapt=2 / b_bias=0 / direct=3 / weightb=1 / open_gop=0 / weightp=2 / keyint=250 / keyint_min=25 / scenecut=40 / intra_refresh=0 / rc_lookahead=50 / rc=2pass / mbtree=1 / bitrate=9566 / ratetol=1.0 / qcomp=0.60 / qpmin=0 / qpmax=69 / qpstep=4 / cplxblur=20.0 / qblur=0.5 / ip_ratio=1.40 / aq=1:1.00
    Язык : French
    Default : Да
    Forced : Нет

    Аудио #1
    Идентификатор : 2
    Формат : AC-3
    Формат/Информация : Audio Coding 3
    Расширение режима : CM (complete main)
    Параметр Endianness формата : Big
    Идентификатор кодека : A_AC3
    Продолжительность : 1 ч. 38 м.
    Вид битрейта : Постоянный
    Битрейт : 192 Кбит/сек
    Каналы : 2 канала
    Расположение каналов : Front: L R
    Частота : 48,0 КГц
    Битовая глубина : 16 бит
    Метод сжатия : С потерями
    Размер потока : 136 Мбайт (2%)
    Заголовок : Нтв+
    Язык : Russian
    Default : Да
    Forced : Да

    Аудио #2
    Идентификатор : 3
    Формат : AC-3
    Формат/Информация : Audio Coding 3
    Расширение режима : CM (complete main)
    Параметр Endianness формата : Big
    Идентификатор кодека : A_AC3
    Продолжительность : 1 ч. 38 м.
    Вид битрейта : Постоянный
    Битрейт : 192 Кбит/сек
    Каналы : 2 канала
    Расположение каналов : Front: L R
    Частота : 48,0 КГц
    Битовая глубина : 16 бит
    Метод сжатия : С потерями
    Размер потока : 136 Мбайт (2%)
    Заголовок : ViruseProject
    Язык : Russian
    Default : Нет
    Forced : Нет

    Аудио #3
    Идентификатор : 4
    Формат : DTS
    Формат/Информация : Digital Theater Systems
    Режим : 16
    Параметр Endianness формата : Big
    Идентификатор кодека : A_DTS
    Продолжительность : 1 ч. 38 м.
    Вид битрейта : Постоянный
    Битрейт : 1509 Кбит/сек
    Каналы : 6 каналов
    Расположение каналов : Front: L C R, Side: L R, LFE
    Частота : 48,0 КГц
    Битовая глубина : 24 бит
    Метод сжатия : С потерями
    Размер потока : 1,04 Гбайт (13%)
    Язык : French
    Default : Нет
    Forced : Нет

    Текст #1
    Идентификатор : 5
    Формат : UTF-8
    Идентификатор кодека : S_TEXT/UTF8
    Идентификатор кодека/Информация : UTF-8 Plain Text
    Заголовок : Leonid55
    Язык : Russian
    Default : Нет
    Forced : Нет

    Текст #2
    Идентификатор : 6
    Формат : UTF-8
    Идентификатор кодека : S_TEXT/UTF8
    Идентификатор кодека/Информация : UTF-8 Plain Text
    Язык : English
    Default : Нет
    Forced : Нет

    Меню
    00:00:00.000 : en:00:00:00.000
    00:04:09.920 : en:00:04:09.920
    00:13:11.360 : en:00:13:11.360
    00:20:49.080 : en:00:20:49.080
    00:26:03.400 : en:00:26:03.400
    00:32:02.720 : en:00:32:02.720
    00:37:38.400 : en:00:37:38.400
    00:46:42.840 : en:00:46:42.840
    00:52:01.800 : en:00:52:01.800
    00:58:50.640 : en:00:58:50.640
    01:07:32.320 : en:01:07:32.320
    01:13:22.600 : en:01:13:22.600
    01:18:45.120 : en:01:18:45.120
    01:24:27.400 : en:01:24:27.400
    01:28:58.840 : en:01:28:58.840
    01:33:23.640 : en:01:33:23.640   Свернуть
    Похожие раздачи Искать похожие
    Инструкция по скачиванию
     1  Качаем uTorrent версии 2.0 и выше
     2  После установки, жмем выше под постером на ссылку Скачать [MediaGet] или Скачать .torrent
     3  Открываем скачанный файл через соответствующий клиент: MediaGet или uTorrent
     4  Ждем пока подключатся участники
     5  Качаем
    Комментарии о  Имена людей / Le nom des gens / The Names of Love | BDRip 1080p 
    Ближайшее в кино
    Вверх