• Игры для PS4
  • Игры для PS3
  • Игры для XBOX360
  • Игры для PC
  • Игры для PS2
  • Игры для PSP
  • Для телефонов
  • Музыка
  • Книги/Журналы
  • Обои
  •  
    Опрос
    Откуда Вы о нас узнали?
      0
    • От знакомых2,1,false,300,full
    • Из социальных сетей2,2,false,300,full
    • Из поисковых систем2,3,false,300,full
    • Другое2,4,false,300,full
    Статистика
    Загрузка...
    Во имя короля 3 / In the Name of the King III | BDRip 1080p
    Статус  Проверено
    В закладки
    Модератор: Max

    Во имя короля 3 / In the Name of the King III | BDRip 1080p [Фильмы 2014] скачать торрентом/torrent бесплатно

    Год выхода
    Язык
    Закачал
    Max | 29 декабря 2014 в 18ч 53м 48с
    Раздел
    Отзывов
    0
    Раздают: 1 Качают: 0 Скачали: 1 Размер: 6.67 GB
    Инфо о раздаче | Благодарности |
    0/5
    0
    0 5 0
    Поддержи нас — расскажи друзьям!
    Orbitum
    Новый интернет-браузер Быстрее загружает сайты Экономит интернет—трафик Меняет оформление страницы ВК Блокирует всю рекламу на сайтах Загружает торренты как

    µTorrent

    клиент
    Объеденяет все твои чаты из соц. сетей в один Проигрывает твою музыку не заходя во ВКонтакте
    Скачать и многое другое... Подробности на сайте производителя
    Информация о фильме
    Название: Во имя короля 3
    Оригинальное название: In the Name of the King III
    Год выпуска: 2013
    Жанр: Боевик, драма, приключения
    Режиссер: Уве Болл
    В ролях: Доминик Пёрселл, Ралитса Паскалева, Башар Рахаль, Николай Сотиров, Петра Гочева, Ян Михайлов, Шелли Варод, Явор Веселинов, Татьяна Педерсен, Фахрадин Фахрадинов

    О фильме:
    Решивший завязать с прошлым, наёмный убийца Хейзен, получает последний, но очень странный заказ, он должен похитить двух дочерей, миллиардера Раковски, Элис и Розу. Будучи в долгу перед заказчиком, он выполняет задание, и прячет девочек в старом контейнере, но сорвав с шеи Элис медальон, подаренный ей матерью, сам себя переносит в далёкое прошлое, на землю древней Болгарии. Его ждут не просто опасные приключения, миссия Хейзена, заключается в том, что бы помочь принцессам Арабелле и Эмельен вернуть власть в стране, захваченной тираном и убийцей их родителей, злобным Тервином, хозяином дракона, уничтожающего людей, по его приказу. Хейзену предстоит не только победить Тервина, но и приручить дракона, что бы тот стал его помощником во времена настоящии, и помог справиться с заказчиками преступления, посягнувшими на жизни ни в чем не повинных девочек.




    Выпущено: Канада, Болгария
    Продолжительность: 01:26:00
    Озвучивание: Любительское (одноголосое) [VANO]
    Примечание: В фильме отсутствует около 2-х минуты перевода

    Файл
    Формат: MKV
    Качество: BDRip 1080p [SONiDO]
    Видео: 9403 kb/s, 1920x1080
    Аудио: Russian: AC3, 192 kb/s (2 ch) / English: DTS, 1510 kb/s (6 ch)
    Дополнительно: Сохранены оригинальные чаптеры как на Blu-Ray
    Размер: 6.67 GB

    Скриншоты
    [img]http://s003.radikal.ru/i204/1402/08/dff53b3abf25.png[/img]
    [img]http://s41.radikal.ru/i092/1402/ef/3842c44dc6e9.png[/img]
    [img]http://s020.radikal.ru/i719/1402/47/52eaa4f89008.png[/img]

    [img]http://s004.radikal.ru/i205/1402/54/021847cbe88c.png[/img]
    [img]http://s61.radikal.ru/i171/1402/a4/80be08661905.png[/img]
    [img]http://s006.radikal.ru/i214/1402/78/a9c4728f2b8b.png[/img]


    NFO
    Общее
    n.The.Name.Of.The.King.III.2014.Blu.Ray.1080p.CINEMANIA.mkv
    Формат : Matroska
    Версия формата : Version 4 / Version 2
    Размер файла : 6,67 Гбайт
    Продолжительность : 1 ч. 26 м.
    Общий поток : 11,1 Мбит/сек
    Название фильма : Release Group CINEMANIA
    Дата кодирования : UTC 2014-02-09 23:04:55
    Программа кодирования : mkvmerge v6.7.0 ("Back to the Ground") 64bit built on Jan 8 2014 15:10:52
    Библиотека кодирования : libebml v1.3.0 + libmatroska v1.4.1

    Видео
    Идентификатор : 1
    Формат : AVC
    Формат/Информация : Advanced Video Codec
    Профиль формата : High@L4.1
    Параметр CABAC формата : Да
    Параметр ReFrames формата : 4 кадра
    Идентификатор кодека : V_MPEG4/ISO/AVC
    Продолжительность : 1 ч. 26 м.
    Битрейт : 9403 Кбит/сек
    Ширина : 1920 пикселей
    Высота : 1080 пикселей
    Соотношение сторон : 16:9
    Режим частоты кадров : Постоянный
    Частота кадров : 23,976 кадра/сек
    Цветовое пространство : YUV
    Субдискретизация насыщенности : 4:2:0
    Битовая глубина : 8 бит
    Тип развёртки : Прогрессивная
    Бит/(Пиксели*Кадры) : 0.189
    Размер потока : 5,52 Гбайт (83%)
    Заголовок : Release Group CINEMANIA
    Библиотека кодирования : x264 core 140 r2377 1ca7bb9
    Настройки программы : cabac=1 / ref=4 / deblock=1:0:0 / analyse=0x3:0x133 / me=umh / subme=7 / psy=1 / psy_rd=1.00:0.00 / mixed_ref=1 / me_range=16 / chroma_me=1 / trellis=1 / 8x8dct=1 / cqm=0 / deadzone=21,11 / fast_pskip=0 / chroma_qp_offset=-2 / threads=12 / lookahead_threads=2 / sliced_threads=0 / nr=0 / decimate=1 / interlaced=0 / bluray_compat=0 / constrained_intra=0 / bframes=3 / b_pyramid=2 / b_adapt=2 / b_bias=0 / direct=3 / weightb=1 / open_gop=0 / weightp=2 / keyint=250 / keyint_min=23 / scenecut=40 / intra_refresh=0 / rc_lookahead=50 / rc=2pass / mbtree=1 / bitrate=9403 / ratetol=1.0 / qcomp=0.60 / qpmin=0 / qpmax=69 / qpstep=4 / cplxblur=20.0 / qblur=0.5 / ip_ratio=1.40 / aq=1:1.00
    Язык : English
    Default : Да
    Forced : Нет

    Аудио #1
    Идентификатор : 2
    Формат : AC-3
    Формат/Информация : Audio Coding 3
    Расширение режима : CM (complete main)
    Параметр Endianness формата : Big
    Идентификатор кодека : A_AC3
    Продолжительность : 1 ч. 26 м.
    Вид битрейта : Постоянный
    Битрейт : 192 Кбит/сек
    Каналы : 2 канала
    Расположение каналов : Front: L R
    Частота : 48,0 КГц
    Битовая глубина : 16 бит
    Метод сжатия : С потерями
    Размер потока : 118 Мбайт (2%)
    Заголовок : VANO
    Язык : Russian
    Default : Да
    Forced : Да

    Аудио #2
    Идентификатор : 3
    Формат : DTS
    Формат/Информация : Digital Theater Systems
    Режим : 16
    Параметр Endianness формата : Big
    Идентификатор кодека : A_DTS
    Продолжительность : 1 ч. 26 м.
    Вид битрейта : Постоянный
    Битрейт : 1509 Кбит/сек
    Каналы : 6 каналов
    Расположение каналов : Front: L C R, Side: L R, LFE
    Частота : 48,0 КГц
    Битовая глубина : 24 бит
    Метод сжатия : С потерями
    Размер потока : 928 Мбайт (14%)
    Язык : English
    Default : Нет
    Forced : Нет

    Меню
    00:00:00.000 : en:00:00:00.000
    00:06:58.001 : en:00:06:58.001
    00:14:28.993 : en:00:14:28.993
    00:22:41.026 : en:00:22:41.026
    00:33:20.957 : en:00:33:20.957
    00:40:07.989 : en:00:40:07.989
    00:50:20.976 : en:00:50:20.976
    00:57:56.973 : en:00:57:56.973
    01:05:06.903 : en:01:05:06.903
    01:09:08.895 : en:01:09:08.895
    01:17:08.916 : en:01:17:08.916
    01:21:54.993 : en:01:21:54.993
    Еще похожие »

    Как скачать?
    1. Качаем UTorrent версии 2.0 и выше отсюда
    2. После установки, жмем на ссылку Скачать торрент.
    3. Открываем его через utorrent.
    4. Ждем пока подключатся участники.
    5. Качаем.


    Комментарии о Во имя короля 3 / In the Name of the King III | BDRip 1080p
    Добавлять комментарии могут только зарегистрированные пользователи

    Зарегистрироваться или Войти


    Ближайшее в кино
    • Профессионал дата выхода 27 сентября 2018Профессионал
      Дата выхода: 27 сентября 2018
    • 650699|Человек, который убил Дон Кихота|27 сентября 2018|200|300Человек, который убил Дон Кихота
      Дата выхода: 27 сентября 2018
    • 1045777|Непрощенный|27 сентября 2018|200|300Непрощенный
      Дата выхода: 27 сентября 2018
    • 939411|Мотылек|27 сентября 2018|200|300Мотылек
      Дата выхода: 27 сентября 2018
    • 652531|Тайна дома с часами|27 сентября 2018|200|300Тайна дома с часами
      Дата выхода: 27 сентября 2018
    • 970196|Поиск|27 сентября 2018|200|300Поиск
      Дата выхода: 27 сентября 2018
    • 429363|Игрушки для взрослых|27 сентября 2018|200|300Игрушки для взрослых
      Дата выхода: 27 сентября 2018
    • 1049653|Сердце мира|27 сентября 2018|200|300Сердце мира
      Дата выхода: 27 сентября 2018
    • 794309|Букшоп|27 сентября 2018|200|300Букшоп
      Дата выхода: 27 сентября 2018
    • 1015929|3 дня с Роми Шнайдер|27 сентября 2018|200|3003 дня с Роми Шнайдер
      Дата выхода: 27 сентября 2018
    • 947047|Похитители носков|27 сентября 2018|200|300Похитители носков
      Дата выхода: 27 сентября 2018
    • 1115748|Руби и Повелитель воды|27 сентября 2018|200|300Руби и Повелитель воды
      Дата выхода: 27 сентября 2018
    • 983306|Нуреев: Его сцена – весь мир|29 сентября 2018|200|300Нуреев: Его сцена – весь мир
      Дата выхода: 29 сентября 2018
    • 463634|Веном|4 октября 2018|200|300Веном
      Дата выхода: 4 октября 2018
    • 998805|На районе|4 октября 2018|200|300На районе
      Дата выхода: 4 октября 2018
    Вверх