• Игры для PS4
  • Игры для PS3
  • Игры для XBOX360
  • Игры для PC
  • Игры для PS2
  • Игры для PSP
  • Для телефонов
  • Музыка
  • Книги / Журналы
  • Обои
  • Опрос
    Удобен ли сайт в использовании?
      0
    • Очень удобен, все понятно1,1,false,300,full
    • Удобен1,2,false,300,full
    • Средне1,3,false,300,full
    • Неудобен, трудно ориентироваться1,4,false,300,full
    • Совсем неудобен1,5,false,300,full
    Статистика
    Всего онлайн -
    Гостей -
    Пользователей -
    Короли трекера
    Благодарности () Закрыть
    Информация о фильме
    Название: Во имя короля 3
    Оригинальное название: In the Name of the King III
    Год выпуска: 2014
    Жанр:  Боевик, драма, приключения
    Режиссер: Уве Болл
    В ролях: Доминик Пёрселл, Ралитса Паскалева, Башар Рахаль, Николай Сотиров, Петра Гочева, Ян Михайлов, Шелли Варод, Явор Веселинов, Татьяна Педерсен, Фахрадин Фахрадинов

    О фильме:Решивший завязать с прошлым, наёмный убийца Хейзен, получает последний, но очень странный заказ, он должен похитить двух дочерей, миллиардера Раковски, Элис и Розу. Будучи в долгу перед заказчиком, он выполняет задание, и прячет девочек в старом контейнере, но сорвав с шеи Элис медальон, подаренный ей матерью, сам себя переносит в далёкое прошлое, на землю древней Болгарии. Его ждут не просто опасные приключения, миссия Хейзена, заключается в том, что бы помочь принцессам Арабелле и Эмельен вернуть власть в стране, захваченной тираном и убийцей их родителей, злобным Тервином, хозяином дракона, уничтожающего людей, по его приказу. Хейзену предстоит не только победить Тервина, но и приручить дракона, что бы тот стал его помощником во времена настоящии, и помог справиться с заказчиками преступления, посягнувшими на жизни ни в чем не повинных девочек.

    Выпущено: Канада, Болгария
    Продолжительность: 01:26:00
    Озвучивание: Любительское (одноголосое) [VANO]
    Примечание: В фильме отсутствует около 2-х минуты перевода

    Файл
    Формат: MKV
    Качество: HDRip-AVC
    Видео: 3187 kb/s, 1024x576
    Аудио: Russian: AC3, 192 kb/s (2 ch) / English: AC3, 448 kb/s (6 ch)
    Дополнительно: Сохранены оригинальные чаптеры как на Blu-Ray




    MI
    General
    Unique ID                                : 228712498988578918967681993805564517894 (0xAC106CCFCCC26EC780AD7D3FB62C9E06)
    Complete name                            : C:In.The.Name.Of.The.King.III.2014.HDRip.AVC.ExKinoRay.mkv
    Format                                   : Matroska
    Format version                           : Version 2
    File size                                : 2.30 GiB
    Duration                                 : 1h 26mn
    Overall bit rate                         : 3 828 Kbps
    Movie name                               : Enigma-Vladislav71
    Encoded date                             : UTC 2014-02-10 16:32:04
    Writing application                      : mkvmerge v4.9.1 ('Ich will') built on Jul 11 2011 23:53:15
    Writing library                          : libebml v1.2.1 + libmatroska v1.1.1

    Video
    ID                                       : 1
    Format                                   : AVC
    Format/Info                              : Advanced Video Codec
    Format profile                           : High@L4.1
    Format settings, CABAC                   : Yes
    Format settings, ReFrames                : 8 frames
    Codec ID                                 : V_MPEG4/ISO/AVC
    Duration                                 : 1h 26mn
    Bit rate                                 : 3 187 Kbps
    Width                                    : 1 024 pixels
    Height                                   : 576 pixels
    Display aspect ratio                     : 16:9
    Frame rate mode                          : Constant
    Frame rate                               : 23.976 fps
    Color space                              : YUV
    Chroma subsampling                       : 4:2:0
    Bit depth                                : 8 bits
    Scan type                                : Progressive
    Bits/(Pixel*Frame)                       : 0.225
    Stream size                              : 1.87 GiB (81%)
    Title                                    : by ExKinoRay
    Writing library                          : x264 core 116 r2044 392e762
    Encoding settings                        : cabac=1 / ref=8 / deblock=1:-2:-2 / analyse=0x3:0x113 / me=umh / subme=9 / psy=1 / psy_rd=1.00:0.20 / mixed_ref=1 / me_range=48 / chroma_me=1 / trellis=2 / 8x8dct=1 / cqm=0 / deadzone=21,11 / fast_pskip=0 / chroma_qp_offset=-3 / threads=12 / sliced_threads=0 / nr=0 / decimate=0 / interlaced=0 / bluray_compat=0 / constrained_intra=0 / bframes=8 / b_pyramid=2 / b_adapt=2 / b_bias=0 / direct=3 / weightb=1 / open_gop=0 / weightp=2 / keyint=240 / keyint_min=23 / scenecut=40 / intra_refresh=0 / rc_lookahead=50 / rc=2pass / mbtree=1 / bitrate=3187 / ratetol=1.0 / qcomp=0.60 / qpmin=0 / qpmax=69 / qpstep=4 / cplxblur=20.0 / qblur=0.5 / ip_ratio=1.40 / aq=1:1.00
    Default                                  : Yes
    Forced                                   : No

    Audio #1
    ID                                       : 2
    Format                                   : AC-3
    Format/Info                              : Audio Coding 3
    Mode extension                           : CM (complete main)
    Format settings, Endianness              : Big
    Codec ID                                 : A_AC3
    Duration                                 : 1h 26mn
    Bit rate mode                            : Constant
    Bit rate                                 : 192 Kbps
    Channel(s)                               : 2 channels
    Channel positions                        : Front: L R
    Sampling rate                            : 48.0 KHz
    Bit depth                                : 16 bits
    Compression mode                         : Lossy
    Stream size                              : 118 MiB (5%)
    Title                                    : Любительский одноголосый (VANO)
    Language                                 : Russian
    Default                                  : Yes
    Forced                                   : No

    Audio #2
    ID                                       : 3
    Format                                   : AC-3
    Format/Info                              : Audio Coding 3
    Mode extension                           : CM (complete main)
    Format settings, Endianness              : Big
    Codec ID                                 : A_AC3
    Duration                                 : 1h 26mn
    Bit rate mode                            : Constant
    Bit rate                                 : 448 Kbps
    Channel(s)                               : 6 channels
    Channel positions                        : Front: L C R, Side: L R, LFE
    Sampling rate                            : 48.0 KHz
    Bit depth                                : 16 bits
    Compression mode                         : Lossy
    Stream size                              : 276 MiB (12%)
    Language                                 : English
    Default                                  : No
    Forced                                   : No

    Menu
    00:00:00.000                             : en:00:00:00.000
    00:06:58.001                             : en:00:06:58.001
    00:14:28.993                             : en:00:14:28.993
    00:22:41.026                             : en:00:22:41.026
    00:33:20.957                             : en:00:33:20.957
    00:40:07.989                             : en:00:40:07.989
    00:50:20.976                             : en:00:50:20.976
    00:57:56.973                             : en:00:57:56.973
    01:05:06.903                             : en:01:05:06.903
    01:09:08.895                             : en:01:09:08.895
    01:17:08.916                             : en:01:17:08.916
    01:21:54.993                             : en:01:21:54.993

    Свернуть

    Скриншоты
    [screen]http://s019.radikal.ru/i639/1402/72/6bac4dc2998a.png[/screen]
    [screen]http://i069.radikal.ru/1402/50/9dfab4453335.png[/screen]

    [screen]http://s58.radikal.ru/i162/1402/4a/bf2d555c58a4.png[/screen]
    [screen]http://s005.radikal.ru/i210/1402/e5/55fb8dc4e0d7.png[/screen]

    [screen]http://i017.radikal.ru/1402/ac/eb88d77cbf0d.png[/screen]

    Свернуть




    Авторы релиза:
    Похожие раздачи Искать похожие
    Инструкция по скачиванию
     1  Качаем uTorrent версии 2.0 и выше
     2  После установки, жмем выше под постером на ссылку Скачать [MediaGet] или Скачать .torrent
     3  Открываем скачанный файл через соответствующий клиент: MediaGet или uTorrent
     4  Ждем пока подключатся участники
     5  Качаем
    Комментарии о  Во имя короля 3 / In the Name of the King III | HDRip-AVC 
    Ближайшее в кино
    Вверх