• Игры для PS4
  • Игры для PS3
  • Игры для XBOX360
  • Игры для PC
  • Игры для PS2
  • Игры для PSP
  • Для телефонов
  • Музыка
  • Книги / Журналы
  • Обои
  • Опрос
    Откуда Вы о нас узнали?
      0
    • От знакомых2,1,false,300,full
    • Из социальных сетей2,2,false,300,full
    • Из поисковых систем2,3,false,300,full
    • Другое2,4,false,300,full
    Статистика
    Всего онлайн -
    Гостей -
    Пользователей -
    Короли трекера
    Благодарности () Закрыть
    Информация о фильме
    Название: Имя розы
    Оригинальное название: Der Name der Rose
    Год выхода: 1986
    Жанр: Триллер
    Режиссер: Жан-Жак Анно
    В ролях:    Шон Коннери, Кристиан Слэйтер, Хельмут Квалтингер, Илья Баскин, Микаэль Лонсдаль, Фолькер Прехтель, Фёдор Шаляпин мл., Уильям Хикки, Валентина Варгас, Рон Перлман, Ф. Мюррэй Абрахам

    О фильме: 1327 год. В обществе молодого послушника Адсо францисканский монах Вильям Баскервильский расследует серию трагических смертей монахов в бенедиктинском монастыре на севере Италии. За всеми этими смертями кроется страшная тайна, и вскоре Вильям убеждается, что ключ к раскрытию загадки лежит в обнаружении сурово охраняемого древнего манускрипта, который хранится в тайной библиотеке монастыря…




    Страна: Германия (ФРГ), Италия, Франция
    Студия: Neue Constantin Film, Cristaldifilm, Les Films Ariane
    Продолжительность:
    Перевод: Дублированный, профессиональный многоголосый, профессиональный двухголосый, авторский (Сербин)
    Субтитры: Русские, английские


    Файл
    Кодек: MPEG-2
    Качество: DVD-9
    Видео: NTSC 16:9 (720x480) VBR
    Звук:   Русский, английский(Dolby AC3, 2 ch)



    DVDInfo
    Title: Локальный диск
    Size: 4.61 Gb ( 4 831 236 KBytes ) - DVD-9
    Enabled regions: 1, 2, 3, 4, 5, 6, 7, 8

    VTS_01 :
      Play Length: 02:11:27
      Video: NTSC 16:9 (720x480) VBR, Auto Pan&Scan
      Audio:
          Russian (Dolby AC3, 2 ch)
          Russian (Dolby AC3, 2 ch)
          English (Dolby AC3, 2 ch)
          Russian (Dolby AC3, 2 ch)
          Russian (Dolby AC3, 2 ch)
          Russian (Dolby AC3, 2 ch)
          Russian (Dolby AC3, 2 ch)
      Subtitles:
          English
          Russian

    Menu Video:
          NTSC 4:3 (720x480) VBR
          Auto Pan&Scan, Auto Letterboxed
    Menu  Language Unit :
          Root Menu
          Audio Menu
          Chapter (PTT) Menu


    Свернуть


    MediaInfo
    Общее
    Полное имя                               : D:1АААИмя РозыVIDEO_TSVTS_01_1.VOB
    Формат                                   : MPEG-PS
    Размер файла                             : 1024 Мбайт
    Продолжительность                        : 28 м.
    Режим общего битрейта                    : Переменный
    Общий поток                              : 5009 Кбит/сек

    Видео
    Идентификатор                            : 224 (0xE0)
    Формат                                   : MPEG Video
    Версия формата                           : Version 2
    Профиль формата                          : Main@Main
    Параметр BVOP формата                    : Да
    Параметр матрицы формата                 : Выборочная
    Параметр GOP формата                     : Variable
    Продолжительность                        : 28 м.
    Вид битрейта                             : Переменный
    Битрейт                                  : 3566 Кбит/сек
    Максимальный битрейт                     : 8500 Кбит/сек
    Ширина                                   : 720 пикселей
    Высота                                   : 480 пикселей
    Соотношение сторон                       : 16:9
    Частота кадров                           : 23,976 кадра/сек
    Стандарт вещания                         : NTSC
    Цветовое пространство                    : YUV
    Субдискретизация насыщенности            : 4:2:0
    Битовая глубина                          : 8 бит
    Тип развёртки                            : Прогрессивная
    Порядок развёртки                        : 2:3 Pulldown
    Метод сжатия                             : С потерями
    Бит/(Пиксели*Кадры)                      : 0.430
    TimeCode_FirstFrame                      : 00:00:00:00
    TimeCode_Source                          : Group of pictures header
    Размер потока                            : 729 Мбайт (71%)

    Аудио #1
    Идентификатор                            : 189 (0xBD)-128 (0x80)
    Формат                                   : AC-3
    Формат/Информация                        : Audio Coding 3
    Расширение режима                        : CM (complete main)
    Параметр Endianness формата              : Big
    Режим смешивания                         : DVD-Video
    Продолжительность                        : 28 м.
    Вид битрейта                             : Постоянный
    Битрейт                                  : 192 Кбит/сек
    Каналы                                   : 2 канала
    Расположение каналов                     : Front: L R
    Частота                                  : 48,0 КГц
    Битовая глубина                          : 16 бит
    Метод сжатия                             : С потерями
    Размер потока                            : 39,2 Мбайт (4%)

    Аудио #2
    Идентификатор                            : 189 (0xBD)-129 (0x81)
    Формат                                   : AC-3
    Формат/Информация                        : Audio Coding 3
    Расширение режима                        : CM (complete main)
    Параметр Endianness формата              : Big
    Режим смешивания                         : DVD-Video
    Продолжительность                        : 28 м.
    Вид битрейта                             : Постоянный
    Битрейт                                  : 192 Кбит/сек
    Каналы                                   : 2 канала
    Расположение каналов                     : Front: L R
    Частота                                  : 48,0 КГц
    Битовая глубина                          : 16 бит
    Метод сжатия                             : С потерями
    Размер потока                            : 39,2 Мбайт (4%)

    Аудио #3
    Идентификатор                            : 189 (0xBD)-130 (0x82)
    Формат                                   : AC-3
    Формат/Информация                        : Audio Coding 3
    Расширение режима                        : CM (complete main)
    Параметр Endianness формата              : Big
    Режим смешивания                         : DVD-Video
    Продолжительность                        : 28 м.
    Вид битрейта                             : Постоянный
    Битрейт                                  : 192 Кбит/сек
    Каналы                                   : 2 канала
    Расположение каналов                     : Front: L R
    Частота                                  : 48,0 КГц
    Битовая глубина                          : 16 бит
    Метод сжатия                             : С потерями
    Размер потока                            : 39,2 Мбайт (4%)

    Аудио #4
    Идентификатор                            : 189 (0xBD)-131 (0x83)
    Формат                                   : AC-3
    Формат/Информация                        : Audio Coding 3
    Расширение режима                        : CM (complete main)
    Параметр Endianness формата              : Big
    Режим смешивания                         : DVD-Video
    Продолжительность                        : 28 м.
    Вид битрейта                             : Постоянный
    Битрейт                                  : 192 Кбит/сек
    Каналы                                   : 2 канала
    Расположение каналов                     : Front: L R
    Частота                                  : 48,0 КГц
    Битовая глубина                          : 16 бит
    Метод сжатия                             : С потерями
    Размер потока                            : 39,2 Мбайт (4%)

    Аудио #5
    Идентификатор                            : 189 (0xBD)-132 (0x84)
    Формат                                   : AC-3
    Формат/Информация                        : Audio Coding 3
    Расширение режима                        : CM (complete main)
    Параметр Endianness формата              : Big
    Режим смешивания                         : DVD-Video
    Продолжительность                        : 28 м.
    Вид битрейта                             : Постоянный
    Битрейт                                  : 192 Кбит/сек
    Каналы                                   : 2 канала
    Расположение каналов                     : Front: L R
    Частота                                  : 48,0 КГц
    Битовая глубина                          : 16 бит
    Метод сжатия                             : С потерями
    Размер потока                            : 39,2 Мбайт (4%)

    Аудио #6
    Идентификатор                            : 189 (0xBD)-133 (0x85)
    Формат                                   : AC-3
    Формат/Информация                        : Audio Coding 3
    Расширение режима                        : CM (complete main)
    Параметр Endianness формата              : Big
    Режим смешивания                         : DVD-Video
    Продолжительность                        : 28 м.
    Вид битрейта                             : Постоянный
    Битрейт                                  : 192 Кбит/сек
    Каналы                                   : 2 канала
    Расположение каналов                     : Front: L R
    Частота                                  : 48,0 КГц
    Битовая глубина                          : 16 бит
    Метод сжатия                             : С потерями
    Размер потока                            : 39,2 Мбайт (4%)

    Аудио #7
    Идентификатор                            : 189 (0xBD)-134 (0x86)
    Формат                                   : AC-3
    Формат/Информация                        : Audio Coding 3
    Расширение режима                        : CM (complete main)
    Параметр Endianness формата              : Big
    Режим смешивания                         : DVD-Video
    Продолжительность                        : 28 м.
    Вид битрейта                             : Постоянный
    Битрейт                                  : 192 Кбит/сек
    Каналы                                   : 2 канала
    Расположение каналов                     : Front: L R
    Частота                                  : 48,0 КГц
    Битовая глубина                          : 16 бит
    Метод сжатия                             : С потерями
    Размер потока                            : 39,2 Мбайт (4%)

    Меню


    Свернуть


    Скриншоты
    [screen]http://i57.fastpic.ru/big/2014/0108/c1/b6296164ae6db98ee8d164ab4c578bc1.png[/screen]
    [screen]http://i57.fastpic.ru/big/2014/0108/fb/86b95929dcdefc8c245e0189755c88fb.png[/screen]
    [screen]http://i57.fastpic.ru/big/2014/0108/57/8c0ebf32fdd43fe54e1b05d082d9af57.png[/screen]
    [screen]http://i57.fastpic.ru/big/2014/0108/9c/0ae4191d24820330977341f85508899c.png[/screen]
    [screen]http://i57.fastpic.ru/big/2014/0108/4e/abc2b089130f0b1b23451bf9e91fc04e.png[/screen]
    Свернуть
    Инструкция по скачиванию
     1  Качаем uTorrent версии 2.0 и выше
     2  После установки, жмем выше под постером на ссылку Скачать [MediaGet] или Скачать .torrent
     3  Открываем скачанный файл через соответствующий клиент: MediaGet или uTorrent
     4  Ждем пока подключатся участники
     5  Качаем
    Комментарии о  Имя розы / Der Name der Rose | DVD-9 
    Ближайшее в кино
    Вверх