• Игры для PS4
  • Игры для PS3
  • Игры для XBOX360
  • Игры для PC
  • Игры для PS2
  • Игры для PSP
  • Для телефонов
  • Музыка
  • Книги/Журналы
  • Обои
  •  
    Опрос
    Удобен ли сайт в использовании?
      0
    • Очень удобен, все понятно1,1,false,300,full
    • Удобен1,2,false,300,full
    • Средне1,3,false,300,full
    • Неудобен, трудно ориентироваться1,4,false,300,full
    • Совсем неудобен1,5,false,300,full
    Статистика
    Загрузка...
    Идальго: Погоня в пустыне / Hidalgo | BDRip
    Статус  Проверено
    В закладки
    Модератор: Max

    Идальго: Погоня в пустыне / Hidalgo | BDRip [Фильмы 2004] скачать торрентом/torrent бесплатно

    Год выхода
    Язык
    Закачал
    Max | 04 января 2015 в 14ч 48м 53с
    Раздел
    Отзывов
    0
    Раздают: 0 Качают: 0 Скачали: 0 Размер: 1.46 GB
    Инфо о раздаче | Благодарности |
    0/5
    0
    0 5 0
    Поддержи нас — расскажи друзьям!
    Orbitum
    Новый интернет-браузер Быстрее загружает сайты Экономит интернет—трафик Меняет оформление страницы ВК Блокирует всю рекламу на сайтах Загружает торренты как

    µTorrent

    клиент
    Объеденяет все твои чаты из соц. сетей в один Проигрывает твою музыку не заходя во ВКонтакте
    Скачать и многое другое... Подробности на сайте производителя


    Информация о фильме
    Название: Идальго: Погоня в пустыне
    Оригинальное название: Hidalgo
    Год выхода: 2004
    Жанр: Боевик, драма, приключения, вестерн
    Режиссер: Джо Джонстон
    В ролях: Вигго Мортенсен, Зулейха Робинсон, Омар Шариф, Луиза Ломбард, Адам Алекси-Маль, Саид Тагмауи, Сайлас Карсон, Харш Найяр, Дж.К. Симмонс, Адони Маропис, Виктор Тэлмадж, Питер Менса, Джошуа Вулф Коулмен, Фрэнки Мванги, Флойд 'Ред Кроу' Уэстермен, Элизабет Берридж, С. Томас Хауэлл, Стивен Римкус, Джерри Хардин, Фрэнк Коллисон, Крис Оуэн, Маршалл Манеш

    О фильме:
    В 1890 году богатый шейх впервые пригласил участвовать в соревнованиях иностранца. Им стал американец Фрэнк Хопкинс, лучший ковбой и наездник на всем Диком Западе. Влиятельный шейх поставил сумасшедшие деньги на победу иноземца. Теперь его судьба зависит от противостояния американского выскочки на мустанге по кличке Идальго и лучших арабских жеребцов, управляемых самыми искусными наездниками-бедуинами. И далеко не всех устраивает победа дерзкого янки в традиционном арабском дерби, ведь она может принести одним — славу, а другим — смерть. И для Фрэнка победа становится не только делом чести, но и единственной возможностью выжить в жарких песках бескрайней пустыни…



    Страна: США
    Студия: Casey Silver Productions, Dune Films, Hidalgo Productions Inc., Touchstone Pictures
    Продолжительность: 02:16:25
    Перевод: Авторский (одноголосый, закадровый) Ю.Сербин

    Файл
    Кодек: XviD
    Качество: BDRip
    Видео: 720x304 , 23.976 fps, XviD build 50 ~1332kbps
    Звук: 48 kHz, AC3 Dolby Digital, 2/0 (L,R) ch, ~192.00 kbps
    MI
    Общее
    Полное имя                       : Hidalgo.2004.BDRip.avi
    Формат                           : AVI
    Формат/Информация                : Audio Video Interleave
    Размер файла                     : 1,46 Гбайт
    Продолжительность                : 2 ч. 16 м.
    Общий поток                      : 1533 Кбит/сек
    Программа кодирования            : VirtualDubMod 1.5.10.3 | www.virtualdub-fr.org || (build 2550/release)
    Библиотека кодирования           : VirtualDubMod build 2550/release

    Видео
    Идентификатор                    : 0
    Формат                           : MPEG-4 Visual
    Профиль формата                  : Advanced Simple@L5
    Параметр BVOP формата            : 2
    Параметр QPel формата            : Нет
    Параметр GMC формата             : Без точки перехода
    Параметр матрицы формата         : Выборочная
    Идентификатор кодека             : XVID
    Идентификатор кодека/Подсказка   : XviD
    Продолжительность                : 2 ч. 16 м.
    Битрейт                          : 1332 Кбит/сек
    Ширина                           : 720 пикс.
    Высота                           : 304 пикс.
    Соотношение сторон               : 2,35:1
    Частота кадров                   : 23,976 кадр/сек
    Цветовое пространство            : YUV
    Подвыборка цветности             : 4:2:0
    Битовая глубина                  : 8 бит
    Тип развёртки                    : Прогрессивная
    Метод сжатия                     : С потерями
    Бит/(Пиксели*Кадры)              : 0.254
    Размер потока                    : 1,27 Гбайт (87%)
    Библиотека кодирования           : XviD 1.2.1 (UTC 2008-12-04)

    Аудио
    Идентификатор                    : 1
    Формат                           : AC-3
    Формат/Информация                : Audio Coding 3
    Расширение режима                : CM (complete main)
    Идентификатор кодека             : 2000
    Продолжительность                : 2 ч. 16 м.
    Вид битрейта                     : Постоянный
    Битрейт                          : 192 Кбит/сек
    Канал(ы)                         : 2 канала(ов)
    Расположение каналов             : Front: L R
    Частота                          : 48,0 КГц
    Битовая глубина                  : 16 бит
    Метод сжатия                     : С потерями
    Размер потока                    : 187 Мбайт (13%)
    Выравнивание                     : Разделение по промежуткам
    Продолжительность промежутка     : 42  мс. (1,00 видеокадр)
    Время предзагрузки промежутка    : 500 ms
    Скриншоты
    [img]http://s019.radikal.ru/i629/1311/90/8aea4cb02a1f.png[/img]
    [img]http://s019.radikal.ru/i607/1311/6c/26bf3287a418.png[/img]
    [img]http://i021.radikal.ru/1311/fa/82e440fcf13d.png[/img]
    [img]http://s018.radikal.ru/i504/1311/7b/ba9781248c14.png[/img]
    [img]http://s57.radikal.ru/i155/1311/37/dc0f6eeac8da.png[/img]
    [img]http://s019.radikal.ru/i634/1311/39/659300c60017.png[/img]
    [img]http://i065.radikal.ru/1311/a3/e37194c7514f.png[/img]
    [img]http://s57.radikal.ru/i158/1311/29/03c297545091.png[/img]


    Leon-masl
    Еще похожие »

    Как скачать?
    1. Качаем UTorrent версии 2.0 и выше отсюда
    2. После установки, жмем на ссылку Скачать торрент.
    3. Открываем его через utorrent.
    4. Ждем пока подключатся участники.
    5. Качаем.


    Комментарии о Идальго: Погоня в пустыне / Hidalgo | BDRip
    Добавлять комментарии могут только зарегистрированные пользователи

    Зарегистрироваться или Войти


    Ближайшее в кино
    • Примадонна дата выхода 18 октября 2018Примадонна
      Дата выхода: 18 октября 2018
    • 885317|Ученик чудовища|18 октября 2018|200|300Ученик чудовища
      Дата выхода: 18 октября 2018
    • 472369|Хэллоуин|18 октября 2018|200|300Хэллоуин
      Дата выхода: 18 октября 2018
    • 1005852|Дикая жизнь|18 октября 2018|200|300Дикая жизнь
      Дата выхода: 18 октября 2018
    • 696499|Галвестон|18 октября 2018|200|300Галвестон
      Дата выхода: 18 октября 2018
    • 1111886|Лукас|18 октября 2018|200|300Лукас
      Дата выхода: 18 октября 2018
    • 1045555|Вечная жизнь Александра Христофорова|18 октября 2018|200|300Вечная жизнь Александра Христофорова
      Дата выхода: 18 октября 2018
    • 1112943|Шестой пост|18 октября 2018|200|300Шестой пост
      Дата выхода: 18 октября 2018
    • 1044626|Тайна магазина игрушек|18 октября 2018|200|300Тайна магазина игрушек
      Дата выхода: 18 октября 2018
    • 629086|Лягушонок Риббит|18 октября 2018|200|300Лягушонок Риббит
      Дата выхода: 18 октября 2018
    • 991817|Закат|18 октября 2018|200|300Закат
      Дата выхода: 18 октября 2018
    • 1020860|Безупречная жизнь|18 октября 2018|200|300Безупречная жизнь
      Дата выхода: 18 октября 2018
    • 968603|Зимние братья|18 октября 2018|200|300Зимние братья
      Дата выхода: 18 октября 2018
    • 1008554|Слоны могут играть в футбол|18 октября 2018|200|300Слоны могут играть в футбол
      Дата выхода: 18 октября 2018
    • 939290|Прогулка по Риму|18 октября 2018|200|300Прогулка по Риму
      Дата выхода: 18 октября 2018
    Вверх