• Игры для PS3
  • Игры для XBOX360
  • Игры для PC
  • Игры для PS2
  • Игры для PSP
  • Для телефонов
  • Музыка
  • Книги/Журналы
  • Обои
  •  
    Опрос
    Откуда Вы о нас узнали?
      0
    • От знакомых2,1,false,300,full
    • Из социальных сетей2,2,false,300,full
    • Из поисковых систем2,3,false,300,full
    • Другое2,4,false,300,full
    Статистика
    Загрузка...
    Падение последней империи / Xinhai geming
    Статус  Проверено
    В закладки
    Модератор: Max

    Падение последней империи / Xinhai geming [Фильмы 2011] скачать торрентом/torrent бесплатно

    Год выхода
    Язык
    Закачал
    Max | 24 февраля 2015 в 16ч 50м 10с
    Раздел
    Отзывов
    0
    Раздают: 0 Качают: 0 Скачали: 0 Размер: 1.46 GB
    Файлы (1) | Благодарности | Хэш код |
    0/5
    0
    Поддержи нас — расскажи друзьям!
    Orbitum
    Новый интернет-браузер Быстрее загружает сайты Экономит интернет—трафик Меняет оформление страницы ВК Блокирует всю рекламу на сайтах Загружает торренты как

    µTorrent

    клиент
    Объеденяет все твои чаты из соц. сетей в один Проигрывает твою музыку не заходя во ВКонтакте
    Скачать и многое другое... Подробности на сайте производителя
    Страна: Гонконг, Китай
    Жанр:  боевик, драма, приключения, военный, история
    Год выпуска: 2011
    Продолжительность: 01:39:12

    Перевод: Профессиональный (многоголосый) лицензия
    Cубтитры: нет
    Оригинальная аудиодорожка: нет

    Режиссер: Джеки Чан]Джеки Чан, Чжан Ли / Jacky Chan, Cjan Li

    В ролях: Джеки Чан]Джеки Чан, Ли Бинбин, Уинстон Чао, Джоан Чэнь, Джейси Чан, Ху Гэ, Минг Ху, Хуанг Жи Жонг, Цзян Вэньли

    Описание: Китай, 1911 г. Период политической нестабильности и революционных настроений в государстве. На фоне общей неразберихи и неопределённости, некто Сунь Ятсен поднимает восстание и направляет мощь своих войск с одной единственной целью — свергнуть правящую династию Цинь и установить новый, социально направленный режим управления республикой.





    MediaInfo

    Общее
    Полное имя                               : 1911.2011.P.BDRip_[YouTracker]_by_avproh.avi
    Формат                                   : AVI
    Формат/Информация                        : Audio Video Interleave
    Размер файла                             : 1,46 Гбайт
    Продолжительность                        : 1 ч. 39 м.
    Общий поток                              : 2103 Кбит/сек
    Программа кодирования                    : VirtualDubMod 1.5.10.3 (build 2550/release)
    Библиотека кодирования                   : VirtualDubMod build 2550/release

    Видео
    Идентификатор                            : 0
    Формат                                   : MPEG-4 Visual
    Профиль формата                          : Advanced Simple@L5
    Параметр BVOP формата                    : 1
    Параметр QPel формата                    : Нет
    Параметр GMC формата                     : Без точки перехода
    Параметр матрицы формата                 : Выборочная
    Идентификатор кодека                     : XVID
    Идентификатор кодека/Подсказка           : XviD
    Продолжительность                        : 1 ч. 39 м.
    Битрейт                                  : 1710 Кбит/сек
    Ширина                                   : 720 пикселей
    Высота                                   : 304 пикселя
    Соотношение сторон                       : 2,35:1
    Частота кадров                           : 23,976 кадра/сек
    Цветовое пространство                    : YUV
    Субдискретизация насыщенности            : 4:2:0
    Битовая глубина                          : 8 бит
    Тип развёртки                            : Прогрессивная
    Метод сжатия                             : С потерями
    Бит/(Пиксели*Кадры)                      : 0.326
    Размер потока                            : 1,18 Гбайт (81%)
    Библиотека кодирования                   : XviD 65

    Аудио
    Идентификатор                            : 1
    Формат                                   : AC-3
    Формат/Информация                        : Audio Coding 3
    Расширение режима                        : CM (complete main)
    Параметр Endianness формата              : Big
    Идентификатор кодека                     : 2000
    Продолжительность                        : 1 ч. 39 м.
    Вид битрейта                             : Постоянный
    Битрейт                                  : 384 Кбит/сек
    Каналы                                   : 6 каналов
    Расположение каналов                     : Front: L C R, Side: L R, LFE
    Частота                                  : 48,0 КГц
    Битовая глубина                          : 16 бит
    Метод сжатия                             : С потерями
    Размер потока                            : 272 Мбайт (18%)
    Выравнивание                             : Разделение по промежуткам
    Продолжительность промежутка             : 42  мс. (1,00 видеокадр)
    Время предзагрузки промежутка            : 500  мс.

    Скриншоты

    [img]http://s017.radikal.ru/i441/1208/cf/93976c554a23.png[/img]
    [img]http://s52.radikal.ru/i135/1208/56/bd3c5ea2ee90.png[/img]
    [img]http://s45.radikal.ru/i109/1208/26/39e146713c62.png[/img]


    Еще похожие »

    Как скачать?
    1. Качаем UTorrent версии 2.0 и выше отсюда
    2. После установки, жмем на ссылку Скачать торрент.
    3. Открываем его через utorrent.
    4. Ждем пока подключатся участники.
    5. Качаем.


    Комментарии о Падение последней империи / Xinhai geming
    Добавлять комментарии могут только зарегистрированные пользователи

    Зарегистрироваться или Войти


    Ближайшее в кино
    • Пианистка дата выхода 18 января 2018Пианистка
      Дата выхода: 18 января 2018
    • Форма воды дата выхода 18 января 2018Форма воды
      Дата выхода: 18 января 2018
    • Астрал 4: Последний ключ дата выхода 18 января 2018Астрал 4: Последний ключ
      Дата выхода: 18 января 2018
    • Темные времена дата выхода 18 января 2018Темные времена
      Дата выхода: 18 января 2018
    • Скиф дата выхода 18 января 2018Скиф
      Дата выхода: 18 января 2018
    • Приключения Паддингтона 2 дата выхода 18 января 2018Приключения Паддингтона 2
      Дата выхода: 18 января 2018
    • Карп отмороженный дата выхода 18 января 2018Карп отмороженный
      Дата выхода: 18 января 2018
    • Мешок без дна дата выхода 18 января 2018Мешок без дна
      Дата выхода: 18 января 2018
    • МУЛЬТ в кино. Выпуск №67. Зимний карнавал дата выхода 20 января 2018МУЛЬТ в кино. Выпуск №67. Зимний карнавал
      Дата выхода: 20 января 2018
    • Смерть Сталина дата выхода 25 января 2018Смерть Сталина
      Дата выхода: 25 января 2018
    • Zомбоящик дата выхода 25 января 2018Zомбоящик
      Дата выхода: 25 января 2018
    • Хэппи-энд дата выхода 25 января 2018Хэппи-энд
      Дата выхода: 25 января 2018
    • Побег из Рио дата выхода 25 января 2018Побег из Рио
      Дата выхода: 25 января 2018
    • Девушка в тумане дата выхода 25 января 2018Девушка в тумане
      Дата выхода: 25 января 2018
    • Выставка Hokusai Британского музея дата выхода 25 января 2018Выставка Hokusai Британского музея
      Дата выхода: 25 января 2018
    Вверх