• Игры для PS4
  • Игры для PS3
  • Игры для XBOX360
  • Игры для PC
  • Игры для PS2
  • Игры для PSP
  • Для телефонов
  • Музыка
  • Книги / Журналы
  • Обои
  • Опрос
    Удобен ли сайт в использовании?
      0
    • Очень удобен, все понятно1,1,false,300,full
    • Удобен1,2,false,300,full
    • Средне1,3,false,300,full
    • Неудобен, трудно ориентироваться1,4,false,300,full
    • Совсем неудобен1,5,false,300,full
    Статистика
    Всего онлайн -
    Гостей -
    Пользователей -
    Короли трекера
    
    Благодарности () Закрыть
    Название: Мотылёк
    Оригинальное название: Papillon
    Год выпуска: 1973
    Жанр:  Драма, криминал, биография
    Выпущено: США, Франция, Allied Artists Pictures Corporation, Corona-General, Solar Productions
    Режиссер: Франклин Дж. Шаффнер
    В ролях: Стив МакКуин, Дастин Хоффман, Виктор Джори, Дон Гордон, Энтони Зерби, Роберт Димен, Вудроу Парфри, Билл Муми, Джордж Кулурис, Рэтна Ассан, Уильям Смитерс, Вэл Эйвери, Грегори Сьерра, Вик Тейбэк, Миллс Уотсон, Рон Собл, Барбара Моррисон, Дон Ханмер, Э.Дж. Андре, Ричард Ангарола, Джек Денбо, Лен Лессер, Джон Квэйд, Фред Сэдофф, Аллен Джаффе, Лиам Данн, Питер Брокко, Ричард Фарнсуорт, Билли М. Грин, Энн Бирн Хоффман, Фред Лернер, Гарри Монти, Эллен Мосс, Далтон Трамбо

    О фильме: За убийство, которое он не совершал, взломщик сейфов Анри Шарьер приговорён к пожизненному заключению и отправлен на каторгу. Прозванный «Мотыльком» из-за того, что на его груди вытатуирован этот символ свободы, Анри совершает несколько попыток побега. В наказание власти надолго сажают его в карцер, а затем отправляют во Французскую Гвиану на остров Дьявола, со всех сторон окружённый океаном. Из этой самой страшной каторжной тюрьмы не удавалось бежать ни одному заключённому. Но ничто не может заставить Анри пасть духом и сломить его решимость вырваться на волю…

    Качество: BDRip 720p
    Размер: 10.32 ГБ
    Продолжительность: 02:30:47

    Видео: MPEG-4 AVC, 4737 Kбит/с, 1280x534
    Аудио 1: русский, 48 kHz, AC3, 2 ch, 192 kbps avg, DVD Магия [Профессиональный многоголосый]
    Аудио 2: русский, 48 kHz, AC3, 2 ch, 192 kbps avg, OPT [Профессиональный многоголосый]
    Аудио 3: русский, 48 kHz, AC3, 6 ch, 448 kbps avg, Пётр Гланц и Инна Королёва [Профессиональный двухголосый]
    Аудио 4: русский, 48 kHz, AC3, 2 ch, 192 kbps avg,  [Профессиональный двухголосый]
    Аудио 5: русский, 48 kHz, AC3, 6 ch, 448 kbps avg, Андрей Гаврилов [Авторский]

    Внешние файлы
    Аудио 3: русский, 48 kHz, DTS, 6 ch, 1509 kbps avg, Пётр Гланц и Инна Королёва [Профессиональный двухголосый]
    Аудио 4: русский, 48 kHz, DTS, 6 ch, 1509 kbps avg, Андрей Гаврилов [Авторский]
    Аудио: английский, 48 kHz, AC3, 6 ch, 448 kbps avg, [Оригинал]
    Субтитры: русские
    Субтитры: английские




    MediaInfo
    Общее
    Полное имя                               : E:VideoMotylek.1973.x264.BDRip.720pMotylek.1973.AVO.rus.А.Гаврилов.dts
    Формат                                   : DTS
    Формат/Информация                        : Digital Theater Systems
    Размер файла                             : 1,59 Гбайт
    Продолжительность                        : 2 ч. 30 м.
    Режим общего битрейта                    : Постоянный
    Общий поток                              : 1510 Кбит/сек

    Аудио
    Формат                                   : DTS
    Формат/Информация                        : Digital Theater Systems
    Режим                                    : 16
    Параметр Endianness формата              : Big
    Продолжительность                        : 2 ч. 30 м.
    Вид битрейта                             : Постоянный
    Битрейт                                  : 1510 Кбит/сек
    Каналы                                   : 6 каналов
    Расположение каналов                     : Front: L C R, Side: L R, LFE
    Частота                                  : 48,0 КГц
    Битовая глубина                          : 24 бит
    Метод сжатия                             : С потерями
    Размер потока                            : 1,59 Гбайт (100%)

    Общее
    Полное имя                               : E:VideoMotylek.1973.x264.BDRip.720pMotylek.1973.DVO.rus.Гланц.dts
    Формат                                   : DTS
    Формат/Информация                        : Digital Theater Systems
    Размер файла                             : 1,59 Гбайт
    Продолжительность                        : 2 ч. 30 м.
    Режим общего битрейта                    : Постоянный
    Общий поток                              : 1510 Кбит/сек

    Аудио
    Формат                                   : DTS
    Формат/Информация                        : Digital Theater Systems
    Режим                                    : 16
    Параметр Endianness формата              : Big
    Продолжительность                        : 2 ч. 30 м.
    Вид битрейта                             : Постоянный
    Битрейт                                  : 1510 Кбит/сек
    Каналы                                   : 6 каналов
    Расположение каналов                     : Front: L C R, Side: L R, LFE
    Частота                                  : 48,0 КГц
    Битовая глубина                          : 24 бит
    Метод сжатия                             : С потерями
    Размер потока                            : 1,59 Гбайт (100%)

    Общее
    Полное имя                               : E:VideoMotylek.1973.x264.BDRip.720pMotylek.1973.eng.srt
    Размер файла                             : 68,2 Кбайт

    Общее
    Полное имя                               : E:VideoMotylek.1973.x264.BDRip.720pMotylek.1973.Original.eng.ac3
    Формат                                   : AC-3
    Формат/Информация                        : Audio Coding 3
    Размер файла                             : 483 Мбайт
    Продолжительность                        : 2 ч. 30 м.
    Режим общего битрейта                    : Постоянный
    Общий поток                              : 448 Кбит/сек

    Аудио
    Формат                                   : AC-3
    Формат/Информация                        : Audio Coding 3
    Расширение режима                        : CM (complete main)
    Параметр Endianness формата              : Big
    Продолжительность                        : 2 ч. 30 м.
    Вид битрейта                             : Постоянный
    Битрейт                                  : 448 Кбит/сек
    Каналы                                   : 6 каналов
    Расположение каналов                     : Front: L C R, Side: L R, LFE
    Частота                                  : 48,0 КГц
    Битовая глубина                          : 16 бит
    Метод сжатия                             : С потерями
    Размер потока                            : 483 Мбайт (100%)

    Общее
    Полное имя                               : E:VideoMotylek.1973.x264.BDRip.720pMotylek.1973.rus.srt
    Размер файла                             : 83,0 Кбайт

    Общее
    Уникальный идентификатор                 : 215536678821940531431042797543157031549 (0xA226DAB90559F4C6954A1FABD05E627D)
    Полное имя                               : E:VideoMotylek.1973.x264.BDRip.720pMotylek.1973.x264.BDRip.720p.mkv
    Формат                                   : Matroska
    Версия формата                           : Version 4 / Version 2
    Размер файла                             : 6,67 Гбайт
    Продолжительность                        : 2 ч. 30 м.
    Общий поток                              : 6335 Кбит/сек
    Название фильма                          : Мотылек / Papillon / 1973 / BDRip  --  STarankov
    Дата кодирования                         : UTC 2010-02-22 21:41:31
    Программа кодирования                    : mkvmerge v5.9.0 ('On The Loose') built on Dec  9 2012 15:37:01
    Библиотека кодирования                   : libebml v1.3.0 + libmatroska v1.4.0

    Видео
    Идентификатор                            : 1
    Формат                                   : AVC
    Формат/Информация                        : Advanced Video Codec
    Профиль формата                          : High@L4.1
    Параметр CABAC формата                   : Да
    Параметр ReFrames формата                : 9 кадров
    Идентификатор кодека                     : V_MPEG4/ISO/AVC
    Продолжительность                        : 2 ч. 30 м.
    Битрейт                                  : 4737 Кбит/сек
    Ширина                                   : 1280 пикселей
    Высота                                   : 534 пикселя
    Соотношение сторон                       : 2,40:1
    Режим частоты кадров                     : Постоянный
    Частота кадров                           : 23,976 кадра/сек
    Цветовое пространство                    : YUV
    Субдискретизация насыщенности            : 4:2:0
    Битовая глубина                          : 8 бит
    Тип развёртки                            : Прогрессивная
    Бит/(Пиксели*Кадры)                      : 0.289
    Размер потока                            : 4,99 Гбайт (75%)
    Библиотека кодирования                   : x264 core 133 r2334 a3ac64b
    Настройки программы                      : cabac=1 / ref=9 / deblock=1:-1:-1 / analyse=0x3:0x113 / me=umh / subme=10 / psy=1 / psy_rd=1.00:0.15 / mixed_ref=1 / me_range=24 / chroma_me=1 / trellis=2 / 8x8dct=1 / cqm=0 / deadzone=21,11 / fast_pskip=0 / chroma_qp_offset=-3 / threads=6 / lookahead_threads=1 / sliced_threads=0 / nr=0 / decimate=1 / interlaced=0 / bluray_compat=0 / constrained_intra=0 / bframes=8 / b_pyramid=2 / b_adapt=2 / b_bias=0 / direct=1 / weightb=0 / open_gop=0 / weightp=2 / keyint=230 / keyint_min=23 / scenecut=40 / intra_refresh=0 / rc_lookahead=60 / rc=crf / mbtree=0 / crf=18.0 / qcomp=0.60 / qpmin=0 / qpmax=69 / qpstep=4 / vbv_maxrate=50000 / vbv_bufsize=62500 / crf_max=0.0 / nal_hrd=none / ip_ratio=1.40 / pb_ratio=1.30 / aq=1:0.80
    Язык                                     : English
    Default                                  : Да
    Forced                                   : Нет

    Аудио #1
    Идентификатор                            : 2
    Формат                                   : AC-3
    Формат/Информация                        : Audio Coding 3
    Расширение режима                        : CM (complete main)
    Параметр Endianness формата              : Big
    Идентификатор кодека                     : A_AC3
    Продолжительность                        : 2 ч. 30 м.
    Вид битрейта                             : Постоянный
    Битрейт                                  : 192 Кбит/сек
    Каналы                                   : 2 канала
    Расположение каналов                     : Front: L R
    Частота                                  : 48,0 КГц
    Битовая глубина                          : 16 бит
    Метод сжатия                             : С потерями
    Размер потока                            : 207 Мбайт (3%)
    Заголовок                                : MVO (DVD Магия)
    Язык                                     : Russian
    Default                                  : Да
    Forced                                   : Нет

    Аудио #2
    Идентификатор                            : 3
    Формат                                   : AC-3
    Формат/Информация                        : Audio Coding 3
    Расширение режима                        : CM (complete main)
    Параметр Endianness формата              : Big
    Идентификатор кодека                     : A_AC3
    Продолжительность                        : 2 ч. 30 м.
    Вид битрейта                             : Постоянный
    Битрейт                                  : 192 Кбит/сек
    Каналы                                   : 2 канала
    Расположение каналов                     : Front: L R
    Частота                                  : 48,0 КГц
    Битовая глубина                          : 16 бит
    Метод сжатия                             : С потерями
    Размер потока                            : 207 Мбайт (3%)
    Заголовок                                : MVO (OPT)
    Язык                                     : Russian
    Default                                  : Нет
    Forced                                   : Нет

    Аудио #3
    Идентификатор                            : 4
    Формат                                   : AC-3
    Формат/Информация                        : Audio Coding 3
    Расширение режима                        : CM (complete main)
    Параметр Endianness формата              : Big
    Идентификатор кодека                     : A_AC3
    Продолжительность                        : 2 ч. 30 м.
    Вид битрейта                             : Постоянный
    Битрейт                                  : 448 Кбит/сек
    Каналы                                   : 6 каналов
    Расположение каналов                     : Front: L C R, Side: L R, LFE
    Частота                                  : 48,0 КГц
    Битовая глубина                          : 16 бит
    Метод сжатия                             : С потерями
    Размер потока                            : 483 Мбайт (7%)
    Заголовок                                : DVO (Пётр Гланц и Инна Королёвр)
    Язык                                     : Russian
    Default                                  : Нет
    Forced                                   : Нет

    Аудио #4
    Идентификатор                            : 5
    Формат                                   : AC-3
    Формат/Информация                        : Audio Coding 3
    Расширение режима                        : CM (complete main)
    Параметр Endianness формата              : Big
    Идентификатор кодека                     : A_AC3
    Продолжительность                        : 2 ч. 30 м.
    Вид битрейта                             : Постоянный
    Битрейт                                  : 192 Кбит/сек
    Каналы                                   : 2 канала
    Расположение каналов                     : Front: L R
    Частота                                  : 48,0 КГц
    Битовая глубина                          : 16 бит
    Метод сжатия                             : С потерями
    Размер потока                            : 207 Мбайт (3%)
    Заголовок                                : DVO
    Язык                                     : Russian
    Default                                  : Нет
    Forced                                   : Нет

    Аудио #5
    Идентификатор                            : 6
    Формат                                   : AC-3
    Формат/Информация                        : Audio Coding 3
    Расширение режима                        : CM (complete main)
    Параметр Endianness формата              : Big
    Идентификатор кодека                     : A_AC3
    Продолжительность                        : 2 ч. 30 м.
    Вид битрейта                             : Постоянный
    Битрейт                                  : 448 Кбит/сек
    Каналы                                   : 6 каналов
    Расположение каналов                     : Front: L C R, Side: L R, LFE
    Частота                                  : 48,0 КГц
    Битовая глубина                          : 16 бит
    Метод сжатия                             : С потерями
    Размер потока                            : 483 Мбайт (7%)
    Заголовок                                : AVO (Андрей Гаврилов)
    Язык                                     : Russian
    Default                                  : Нет
    Forced                                   : Нет
    Свернуть
    Скриншоты
    [screen]http://img.lostpic.net/orig_images/1/1/f/11f4b4ebab4c3f99908ab0273320841a.png[/screen]
      [screen]http://img.lostpic.net/orig_images/4/c/5/4c59928233e483fe25e1d65808dfdb42.png[/screen]

    [screen]http://img.lostpic.net/orig_images/8/9/b/89b1c340725064e8ada730048d458880.png[/screen]
      Свернуть
    Похожие раздачи Искать похожие
    Инструкция по скачиванию
     1  Качаем uTorrent версии 2.0 и выше
     2  После установки, жмем выше под постером на ссылку Скачать [MediaGet] или Скачать .torrent
     3  Открываем скачанный файл через соответствующий клиент: MediaGet или uTorrent
     4  Ждем пока подключатся участники
     5  Качаем
    Комментарии о  Мотылёк / Papillon | BDRip 720p 
    Ближайшее в кино
    Вверх