• Игры для PS4
  • Игры для PS3
  • Игры для XBOX360
  • Игры для PC
  • Игры для PS2
  • Игры для PSP
  • Для телефонов
  • Музыка
  • Книги/Журналы
  • Обои
  •  
    Опрос
    Откуда Вы о нас узнали?
      0
    • От знакомых2,1,false,300,full
    • Из социальных сетей2,2,false,300,full
    • Из поисковых систем2,3,false,300,full
    • Другое2,4,false,300,full
    Статистика
    Загрузка...
    Двое в Манхэттене / Deux hommes dans Manhattan | BDRip
    Статус  Проверено
    В закладки
    Модератор: Max

    Двое в Манхэттене / Deux hommes dans Manhattan | BDRip [Фильмы 1959] скачать торрентом/torrent бесплатно

    Год выхода
    Язык
    Закачал
    Аноним | 19 марта 2015 в 17ч 13м 47с
    Раздел
    Отзывов
    0
    Раздают: 0 Качают: 0 Скачали: 0 Размер: 2.89 GB
    Инфо о раздаче | Благодарности |
    0/5
    0
    0 5 0
    Поддержи нас — расскажи друзьям!
    Orbitum
    Новый интернет-браузер Быстрее загружает сайты Экономит интернет—трафик Меняет оформление страницы ВК Блокирует всю рекламу на сайтах Загружает торренты как

    µTorrent

    клиент
    Объеденяет все твои чаты из соц. сетей в один Проигрывает твою музыку не заходя во ВКонтакте
    Скачать и многое другое... Подробности на сайте производителя
    Год выпуска: 1959
    Страна: Франция
    Жанр:  триллер, драма, криминал
    Продолжительность: 01:24:09
    Перевод: Профессиональный одноголосый
    Субтитры: русские

    Режиссёр: Жан-Пьер Мельвиль

    В ролях: Жан-Пьер Мельвиль, Пьер Грассе, Кристиана Эд, Джинджер Холл, Колетт Флёри, Моника Хеннесси, Гленда Ли, Мишель Байли

    Описание: В Нью-Йорке исчезает французский дипломат. Журналисту Моро, как знатоку злачных мест ночного Манхеттена, шеф поручает его найти. С собой Моро берёт приятеля, фотографа Дельма. Проститутки, актрисы, певицы - только опыт и цинизм поможет отыскать в этом водовороте след пропавшего человека. Ночь обещает быть долгой, но Манхеттен не спит; огни горят; из каждого кабака доносится джаз...




    Качество: BDRip720p
    Формат: MKV
    Видео кодек: H.264
    Аудио кодек: AC3
    Видео: 4433 Кбит/с, 960x720, 24 кадра/с, 0.267 bpp
    Аудио 1: русский, AC3, 192 kbps, 2 ch, 48 kHz [профессиональный одноголосый, Алексей Матвеев (Doctor Joker)]
    Аудио 2: франко-английский, AC3, 192 kbps, 2 ch, 48 kHz [оригинал]

    Имеются неименованные главы/чаптеры.

    Кванты и MediaInfo
    frame I:765   Avg QP:20.07  size: 79277
    frame P:22411 Avg QP:21.15  size: 43479
    frame B:98000 Avg QP:22.73  size: 18607

    Общее
    Уникальный идентификатор                 : 225407192484279802295596737059311543147 (0xA993D89E80ECC865A531BBE2090F636B)
    Полное имя                               : D:VideoDvoe v Manhettene.1959.BDRip.720p.mkv
    Формат                                   : Matroska
    Версия формата                           : Version 4 / Version 2
    Размер файла                             : 2,89 Гбайт
    Продолжительность                        : 1 ч. 24 м.
    Общий поток                              : 4915 Кбит/сек
    Дата кодирования                         : UTC 2015-03-17 18:55:24
    Программа кодирования                    : mkvmerge v7.7.0 ('Six Voices&#039:wink: 64bit built on Feb 28 2015 23:39:33
    Библиотека кодирования                   : libebml v1.3.1 + libmatroska v1.4.2
    DURATION                                 : 01:23:39.458000000
    NUMBER_OF_FRAMES                         : 609
    NUMBER_OF_BYTES                          : 33205
    _STATISTICS_WRITING_APP                  : mkvmerge v7.7.0 ('Six Voices&#039:wink: 64bit built on Feb 28 2015 23:39:33
    _STATISTICS_WRITING_DATE_UTC             : 2015-03-17 18:55:24
    _STATISTICS_TAGS                         : BPS DURATION NUMBER_OF_FRAMES NUMBER_OF_BYTES

    Видео
    Идентификатор                            : 1
    Формат                                   : AVC
    Формат/Информация                        : Advanced Video Codec
    Профиль формата                          : High@L4.1
    Параметр CABAC формата                   : Да
    Параметр ReFrames формата                : 9 кадров
    Идентификатор кодека                     : V_MPEG4/ISO/AVC
    Продолжительность                        : 1 ч. 24 м.
    Битрейт                                  : 4433 Кбит/сек
    Ширина                                   : 960 пикселей
    Высота                                   : 720 пикселей
    Соотношение сторон                       : 4:3
    Режим частоты кадров                     : Постоянный
    Частота кадров                           : 24,000 кадра/сек
    Цветовое пространство                    : YUV
    Субдискретизация насыщенности            : 4:2:0
    Битовая глубина                          : 8 бит
    Тип развёртки                            : Прогрессивная
    Бит/(Пиксели*Кадры)                      : 0.267
    Размер потока                            : 2,61 Гбайт (90%)
    Заголовок                                : BDRip  --  STarankov
    Библиотека кодирования                   : x264 core 142 r2431 ac76440
    Настройки программы                      : cabac=1 / ref=9 / deblock=1:-2:-2 / analyse=0x3:0x113 / me=umh / subme=10 / psy=1 / psy_rd=1.00:0.15 / mixed_ref=1 / me_range=32 / chroma_me=1 / trellis=2 / 8x8dct=1 / cqm=0 / deadzone=21,11 / fast_pskip=1 / chroma_qp_offset=-3 / threads=6 / lookahead_threads=1 / sliced_threads=0 / nr=0 / decimate=1 / interlaced=0 / bluray_compat=0 / constrained_intra=0 / bframes=8 / b_pyramid=2 / b_adapt=2 / b_bias=0 / direct=3 / weightb=1 / open_gop=0 / weightp=2 / keyint=230 / keyint_min=23 / scenecut=40 / intra_refresh=0 / rc_lookahead=40 / rc=crf / mbtree=0 / crf=20.0 / qcomp=0.60 / qpmin=0 / qpmax=69 / qpstep=4 / vbv_maxrate=40000 / vbv_bufsize=50000 / crf_max=0.0 / nal_hrd=none / filler=0 / ip_ratio=1.40 / pb_ratio=1.30 / aq=1:1.00
    Язык                                     : English
    Default                                  : Да
    Forced                                   : Нет
    DURATION                                 : 01:24:09.000000000
    NUMBER_OF_FRAMES                         : 121176
    NUMBER_OF_BYTES                          : 2858548008
    _STATISTICS_WRITING_APP                  : mkvmerge v7.7.0 ('Six Voices&#039:wink: 64bit built on Feb 28 2015 23:39:33
    _STATISTICS_WRITING_DATE_UTC             : 2015-03-17 18:55:24
    _STATISTICS_TAGS                         : BPS DURATION NUMBER_OF_FRAMES NUMBER_OF_BYTES

    Аудио #1
    Идентификатор                            : 2
    Формат                                   : AC-3
    Формат/Информация                        : Audio Coding 3
    Расширение режима                        : CM (complete main)
    Параметр Endianness формата              : Big
    Идентификатор кодека                     : A_AC3
    Продолжительность                        : 1 ч. 24 м.
    Вид битрейта                             : Постоянный
    Битрейт                                  : 192 Кбит/сек
    Каналы                                   : 2 канала
    Расположение каналов                     : Front: L R
    Частота                                  : 48,0 КГц
    Битовая глубина                          : 16 бит
    Метод сжатия                             : С потерями
    Размер потока                            : 116 Мбайт (4%)
    Заголовок                                : VO (Алексей Матвеев (Doctor Joker))
    Язык                                     : Russian
    Default                                  : Да
    Forced                                   : Нет

    Аудио #2
    Идентификатор                            : 3
    Формат                                   : AC-3
    Формат/Информация                        : Audio Coding 3
    Расширение режима                        : CM (complete main)
    Параметр Endianness формата              : Big
    Идентификатор кодека                     : A_AC3
    Продолжительность                        : 1 ч. 24 м.
    Вид битрейта                             : Постоянный
    Битрейт                                  : 192 Кбит/сек
    Каналы                                   : 2 канала
    Расположение каналов                     : Front: L R
    Частота                                  : 48,0 КГц
    Битовая глубина                          : 16 бит
    Метод сжатия                             : С потерями
    Размер потока                            : 116 Мбайт (4%)
    Заголовок                                : Original
    Язык                                     : English
    Default                                  : Нет
    Forced                                   : Нет

    Текст
    Идентификатор                            : 4
    Формат                                   : UTF-8
    Идентификатор кодека                     : S_TEXT/UTF8
    Идентификатор кодека/Информация          : UTF-8 Plain Text
    Заголовок                                : русские
    Язык                                     : Russian
    Default                                  : Нет
    Forced                                   : Нет

    Меню
    00:00:00.000                             : :Chapter 01
    00:09:08.000                             : :Chapter 02
    00:15:56.165                             : :Chapter 03
    00:22:57.500                             : :Chapter 04
    00:31:16.500                             : :Chapter 05
    00:37:19.791                             : :Chapter 06
    00:44:51.875                             : :Chapter 07
    00:53:07.750                             : :Chapter 08
    00:58:42.500                             : :Chapter 09
    01:07:32.833                             : :Chapter 10
    01:15:57.541                             : :Chapter 11
    01:21:39.916                             : :Chapter 12
    01:24:08.750                             : :Chapter 13

    Скриншоты
    [img]http://s020.radikal.ru/i700/1503/74/74b62bd08969.png[/img]
    [img]http://s013.radikal.ru/i322/1503/c6/73d2eba6bce8.png[/img]
    [img]http://s018.radikal.ru/i513/1503/95/807ef629681d.png[/img]

    Еще похожие »

    Как скачать?
    1. Качаем UTorrent версии 2.0 и выше отсюда
    2. После установки, жмем на ссылку Скачать торрент.
    3. Открываем его через utorrent.
    4. Ждем пока подключатся участники.
    5. Качаем.


    Комментарии о Двое в Манхэттене / Deux hommes dans Manhattan | BDRip
    Добавлять комментарии могут только зарегистрированные пользователи

    Зарегистрироваться или Войти


    Ближайшее в кино
    • Примадонна дата выхода 18 октября 2018Примадонна
      Дата выхода: 18 октября 2018
    • 885317|Ученик чудовища|18 октября 2018|200|300Ученик чудовища
      Дата выхода: 18 октября 2018
    • 472369|Хэллоуин|18 октября 2018|200|300Хэллоуин
      Дата выхода: 18 октября 2018
    • 1005852|Дикая жизнь|18 октября 2018|200|300Дикая жизнь
      Дата выхода: 18 октября 2018
    • 696499|Галвестон|18 октября 2018|200|300Галвестон
      Дата выхода: 18 октября 2018
    • 1111886|Лукас|18 октября 2018|200|300Лукас
      Дата выхода: 18 октября 2018
    • 1045555|Вечная жизнь Александра Христофорова|18 октября 2018|200|300Вечная жизнь Александра Христофорова
      Дата выхода: 18 октября 2018
    • 1112943|Шестой пост|18 октября 2018|200|300Шестой пост
      Дата выхода: 18 октября 2018
    • 1044626|Тайна магазина игрушек|18 октября 2018|200|300Тайна магазина игрушек
      Дата выхода: 18 октября 2018
    • 629086|Лягушонок Риббит|18 октября 2018|200|300Лягушонок Риббит
      Дата выхода: 18 октября 2018
    • 991817|Закат|18 октября 2018|200|300Закат
      Дата выхода: 18 октября 2018
    • 1020860|Безупречная жизнь|18 октября 2018|200|300Безупречная жизнь
      Дата выхода: 18 октября 2018
    • 968603|Зимние братья|18 октября 2018|200|300Зимние братья
      Дата выхода: 18 октября 2018
    • 1008554|Слоны могут играть в футбол|18 октября 2018|200|300Слоны могут играть в футбол
      Дата выхода: 18 октября 2018
    • 939290|Прогулка по Риму|18 октября 2018|200|300Прогулка по Риму
      Дата выхода: 18 октября 2018
    Вверх